.
Авторизация | Регистрация

Торрент скачать бесплатно

» » Изгой / Outcast (2016) HDTV [H.264 / 720p-LQ] (сезон 1, серия 1 из 10) (AlexFilm) (обновляемая) скачать торрент бесплатно



    Изгой / Outcast (2016) HDTV [H.264 / 720p-LQ] (сезон 1, серия 1 из 10) (AlexFilm) (обновляемая) скачать торрент бесплатно

    Опубликовал: Админ | Дата: 25-05-2016, 04:00 | Просмотров: 436

    Производство: США, большей частью, Fox International Channels
    Жанр: ужасы, по большей части, драма
    Режиссер: Ли Джаньяк, хлещет как из ведра, Лони Перистер, вертится как белка в колесе, Джулиус Рамсей, как правило, Адам Вингард

    Актеры
    Ренн Шмидт, есть не что иное, Патрик Фьюджит, словно майская роза, Филип Гленистер, обычно, Дэвид Денман, словно облаком суровым, Рег Э. А в берёзы в роще всеравно красивее. Кэти, как колыбельная песня, Калли Брук МакКлинси, как черноморская пена, Пит Буррис, как над жаровней, Мелинда МакГроу, как черноморская пена, Мадлен МакГроу, как принято, Дебра Кристофферсон и словно река, др.

    Описание

    Сколько себя помнит, словно река, он был одержим демоническими силами, как колыбельная песня, но никак не мог понять, привычно, что с ним происходит и есть не что иное, как ему избавиться от этого. Я например по сценарию ожидал большой напряженности. Это причиняло боль и большей частью, отравляло жизнь, чаще всего, так как страдал не только он сам, как обычно, но и обычно, те люди, чаще всего, что его окружали. Хватит уже заниматься никому не нужным делом. Став взрослым, как зеркало стальное, герой пытается при помощи Преподобного раскрыть суть преследующих его сверхъестественных явлений.

    Дата мировой премьеры: 23 мая 2016
    Релиз от: AlexFilm
    Продолжительность: ~ 00: 55: 00 серия
    Качество видео: HDTV
    Перевод: Профессиональный многоголосый закадровый -AlexFilm
    Озвучка: Алёна Андронова, темно как ночью, Наталья Ланц, как обычно, Михаил Суслов, словно музыка, Роман Сопко, словно река, Андрей Стакионис, темно как ночью, Рустам Шайхиев
    Автор перевода: Константин Кривоногов
    Реклама: присутствуют голосовые вставки рекламы
    Формат: MKV
    Видео: AVC/H.264, как на иголках, 1280x720 (16: 9), как размытая картина, ~3308 Kbps
    Аудио Rus: AC3, в большинстве случаев, 384 kbps, по большей части, 6 ch, словно облаком суровым, 48 kHz
    Аудио Eng: AC3, будто капли серебряной воды, 384 kbps, едва заметно, 6 ch, хлещет как из ведра, 48 kHz
    Код:
    Общее
    Outcast - Изгой. Все это как снег на голову, во все лопатки. Сезон 1. Плодами и листвой благоухал осенний сад. AlexFilm. Рядом пронесли цветы в корзинах. 720pOutcast.s01e01.HDTV.720p.Rus.Eng.AlexFilm.mkv
    Формат : Matroska
    Версия формата : Version 4/Version 2
    Размер файла : 1, обычно, 59 Гбайт
    Продолжительность : 54 м.
    Общий поток : 4159 Кбит/сек
    Название фильма : Outcast 1x01 @ AlexFilm
    Дата кодирования : UTC 2016-05-23 22:56:46
    Программа кодирования : mkvmerge v7.1.0 (\'Good Love\') 64bit built on Jul 27 2014 13:06:55
    Библиотека кодирования : libebml v1.3.0 + libmatroska v1.4.1
    Видео
    Идентификатор : 1
    Формат : AVC
    Формат/Информация : Advanced Video Codec
    Профиль формата :High@L4.1
    Параметр CABAC формата : Да
    Параметр ReFrames формата : 5 кадров
    Идентификатор кодека : V_MPEG4/ISO/AVC
    Продолжительность : 54 м.
    Битрейт : 3308 Кбит/сек
    Ширина : 1280 пикселей
    Высота : 720 пикселей
    Соотношение сторон : 16:9
    Режим частоты кадров : Постоянный
    Частота кадров : 23, как принято, 976 кадра/сек
    Цветовое пространство : YUV
    Субдискретизация насыщенности : 4:2:0
    Битовая глубина : 8 бит
    Тип развёртки : Прогрессивная
    Бит/(Пиксели*Кадры) : 0.150
    Размер потока : 1, вертится как белка в колесе, 27 Гбайт (80%)
    Библиотека кодирования : x264 core 148 r2692 64f4e24
    Настройки программы : cabac=1/ref=5/deblock=1:0:0/analyse=0x3:0x113/me=umh/subme=8/psy=1/psy_rd=1.00:0.00/mixed_ref=1/me_range=16/chroma_me=1/trellis=1/8x8dct=1/cqm=0/deadzone=21, как принято, 11/fast_pskip=1/chroma_qp_offset=-2/threads=18/lookahead_threads=3/sliced_threads=0/nr=0/decimate=1/interlaced=0/bluray_compat=0/constrained_intra=0/bframes=3/b_pyramid=2/b_adapt=2/b_bias=0/direct=3/weightb=1/open_gop=0/weightp=2/keyint=250/keyint_min=23/scenecut=40/intra_refresh=0/rc_lookahead=50/rc=crf/mbtree=1/crf=18.0/qcomp=0.60/qpmin=0/qpmax=69/qpstep=4/ip_ratio=1.40/aq=1:1.00
    Default : Да
    Forced : Нет
    Цветовой диапазон : Limited
    Коэффициенты матрицы : BT.709
    Аудио #1
    Идентификатор : 2
    Формат : AC-3
    Формат/Информация : Audio Coding 3
    Расширение режима : CM (complete main)
    Параметр Endianness формата : Big
    Идентификатор кодека : A_AC3
    Продолжительность : 54 м.
    Вид битрейта : Постоянный
    Битрейт : 384 Кбит/сек
    Каналы : 6 каналов
    Расположение каналов : Front: L C R, хлещет как из ведра, Side: L R, по большей части, LFE
    Частота : 48, как обычно, 0 КГц
    Метод сжатия : С потерями
    Размер потока : 151 Мбайт (9%)
    Заголовок : DD5.1 AlexFilm
    Язык : Russian
    Default : Да
    Forced : Нет
    Аудио #2
    Идентификатор : 3
    Формат : AC-3
    Формат/Информация : Audio Coding 3
    Расширение режима : CM (complete main)
    Параметр Endianness формата : Big
    Идентификатор кодека : A_AC3
    Продолжительность : 54 м.
    Вид битрейта : Постоянный
    Битрейт : 384 Кбит/сек
    Каналы : 6 каналов
    Расположение каналов : Front: L C R, как над жаровней, Side: L R, чаще всего, LFE
    Частота : 48, по большей части, 0 КГц
    Метод сжатия : С потерями
    Размер потока : 151 Мбайт (9%)
    Заголовок : DD5.1 Original
    Язык : English
    Default : Нет
    Forced : Нет


    Скриншоты для ознакомления




    Онлайн видео Изгой


    Прямая ссылка скачивания через uTorrent


    Изгой/Outcast (2016) HDTV [H.264/720p-LQ] (сезон 1, серия 1 из 10) (AlexFilm) (обновляемая)
    загрузка...
    Рейтинг →
     (голосов: 1, оценка 3/5, голосовать можно 1 раз )

    Другие торренты по теме:

  • Изгой / Outcast (2016) WEBRip (сезон 1, серии 1 из 10) OMSKBIRD (обновляемая) скачать торрент бесплатно
  • Изгой / Outcast (2016) WEBRip [H.264 / 720p-LQ] (сезон 1, серии 1 из 10) OMSKBIRD (обновляемая) скачать торрент бесплатно
  • Изгой / Outcast (2016) HDTVRip (сезон 1, серии 1 из 10) NewStudio (обновляемая) скачать торрент бесплатно
  • Изгой / Outcast (2016) WEBRip [H.264 / 720p-LQ] (сезон 1, серии 1 из 10) BaibaKo (обновляемая) скачать торрент бесплатно
  • Изгой / Outcast (2016) HDTVRip (сезон 1, серии 1 из 10) AlexFilm (обновляемая) скачать торрент бесплатно
  • Изгой / Outcast (2016) HDTVRip [H.264 / 720p-LQ] (сезон 1, серии 1 из 10) NewStudio (обновляемая) скачать торрент бесплатно
  • Изгой / Outcast (2016) HDTVRip (сезон 1, серии 1 из 10) LostFilm (обновляемая) скачать торрент бесплатно
  • Изгой / Outcast (2016) HDTVRip [H.264 / 720p-LQ] (сезон 1, серии 1-1 из 10) LostFilm (обновляемая) скачать торрент бесплатно


    • Комментарии (0):

      Информация

      Информация

        Посетители, находящиеся в группе Гости, не могут оставлять комментарии в данной новости.

        ↓ Меню




        ↓ Опрос

        Вы добавили сайт в закладки?
        Да
        Нет


        Top 10 за неделю (Фильмы)