.
Авторизация | Регистрация
Хочешь лучшие торренты? Добавь свой email!
Добавить

Торрент скачать бесплатно

» » Сладкая жизнь (2016) WEB-DLRip [H.264 / 720p-LQ] (сезон 3, серии 1- из 7) (обновляемая) торрент скачать бесплатно



    Сладкая жизнь (2016) WEB-DLRip [H.264 / 720p-LQ] (сезон 3, серии 1- из 7) (обновляемая) торрент скачать бесплатно

    Опубликовал: Админ | Дата: 25-05-2016, 04:00 | Просмотров: 8

    Производство: Россия/Good Story Media по заказу ТНТ
    Жанр: драма
    Режиссер: Давид Кочаров

    Актеры
    Марта Носова, Никита Панфилов, Лукерья Ильяшенко, Анастасия Меськова, Мария Шумакова, Роман Маякин, Антон Денисенко, Эдуард Мацаберидзе, Артур Бичахчян, Анатолий Горячев, Дарья Белоусова (II), Данила Дунаев, Нина Гусева, Ольга Медынич, Александр Робак, Анжелика Морозова, Алексей Варущенко, Ирина Темичева и др.

    Описание

    Два первых сезон любимого сериалаа Сладкой жизни показали, что происходит с людьми, которые живут так, как им хочется. В финале герои оказываются на самом дне и разными способами пытаются вернуться в зону комфорта, чтобы снова зажить сладкой жизнью. Но будет ли она такой, как раньше? Это каждому герою предстоит решить для себя самому.

    Возраст: 16+ (зрителям, достигшим 16 лет)
    Продолжительность: ~00: 43: 00 серия
    Качество видео: WEB-DLRip
    Видео: AVC/H.264, 1280x720 (16: 9), ~3500 Kbps
    Аудио: AC3, 2 ch, 192 Kbps, CBR
    Код:
    Общее
    Уникальный идентификатор : 251961571751707424497649679342895304535 (0xBD8E08992AD8FB4BB0E1281340530F57)
    Полное имя : F:DOWNLOADSСладкая жизнь (3 сезон любимого сериала) (2016) WEB-DLRip 720Сладкая жизнь 3 - 01 серия.mkv
    Формат : Matroska
    Версия формата : Version 2
    Размер файла : 1, 13 Гбайт
    Продолжительность : 43 м.
    Общий поток : 3750 Кбит/сек
    Дата кодирования : UTC 2016-05-24 16:25:36
    Программа кодирования : mkvmerge v7.8.0 (\'River Man\') 32bit built on Apr 3 2015 12:11:22
    Библиотека кодирования : libebml v1.3.1 + libmatroska v1.4.2
    Видео
    Идентификатор : 1
    Формат : AVC
    Формат/Информация : Advanced Video Codec
    Профиль формата :High@L3.1
    Параметр CABAC формата : Да
    Параметр ReFrames формата : 1 кадр
    Параметр GOP формата : M=1, N=12
    Идентификатор кодека : V_MPEG4/ISO/AVC
    Продолжительность : 43 м.
    Битрейт : 3484 Кбит/сек
    Ширина : 1280 пикселей
    Высота : 720 пикселей
    Соотношение сторон : 16:9
    Режим частоты кадров : Постоянный
    Частота кадров : 25, 000 кадров/сек
    Стандарт вещания : Component
    Цветовое пространство : YUV
    Субдискретизация насыщенности : 4:2:0
    Битовая глубина : 8 бит
    Тип развёртки : Прогрессивная
    Бит/(Пиксели*Кадры) : 0.151
    Размер потока : 1, 05 Гбайт (93%)
    Default : Да
    Forced : Нет
    Цветовой диапазон : Limited
    Аудио
    Идентификатор : 2
    Формат : AC-3
    Формат/Информация : Audio Coding 3
    Расширение режима : CM (complete main)
    Параметр Endianness формата : Big
    Идентификатор кодека : A_AC3
    Продолжительность : 43 м.
    Вид битрейта : Постоянный
    Битрейт : 192 Кбит/сек
    Каналы : 2 канала
    Расположение каналов : Front: L R
    Частота : 48, 0 КГц
    Частота кадров : 31, 250 кадров/сек (1536 spf)
    Метод сжатия : С потерями
    Размер потока : 59, 5 Мбайт (5%)
    Default : Да
    Forced : Нет


    Скриншоты для ознакомления




    Онлайн видео Сладкая жизнь (2016) WEB-DLRip [H.264


    Прямая ссылка скачивания через uTorrent


    Сладкая жизнь (2016) WEB-DLRip [H.264/720p-LQ] (сезон 3, серии 1- из 7) (обновляемая)
    загрузка...
    Рейтинг →
     (голосов: 1, оценка 3/5, голосовать можно 1 раз )

    Другие торренты по теме:

  • Сладкая жизнь (2015) SATRip (сезон 2, серии 1 из 8) (обновляемая) скачать через торрент бесплатно
  • Сладкая жизнь (2015) WEB-DLRip [H.264 / 720p-LQ] (сезон 2, серии 1- из 8) (обновляемая) скачать через торрент бесплатно
  • Сладкая жизнь (2015) WEB-DLRip (сезон 2, серии 1- из 8) (обновляемая) скачать через торрент бесплатно
  • Сладкая жизнь (2015) WEB-DLRip [H.264] (сезон 2, серии 1-3 из 8) (обновляемая) скачать через торрент бесплатно
  • Сладкая жизнь (2016) DVB [H.264] (сезон 3, серии 1- из 7) (обновляемая)
  • Сладкая жизнь (2016) DVBRip [H.264] (сезон 3, серии 1- из 7) (обновляемая)
  • Сладкая жизнь (2016) SATRip (сезон 3, серии 1 из 7) (обновляемая)
  • Сладкая жизнь (2016) WEB-DLRip (сезон 3, серии 1- из 7) (обновляемая)


    • Комментарии (0):

      Информация

      Информация

        Посетители, находящиеся в группе Гости, не могут оставлять комментарии в данной новости.

        ↓ Меню




        ↓ Опрос

        Вы добавили сайт в закладки?
        Да
        Нет


        Top 10 за месяц (Фильмы)