.
Авторизация | Регистрация

Торрент скачать бесплатно

» » Агент Коди Бэнкс / Agent Cody Banks (2003) BDRip [H.264] скачать торрент бесплатно



    Агент Коди Бэнкс / Agent Cody Banks (2003) BDRip [H.264] скачать торрент бесплатно

    Опубликовал: Админ | Дата: 25-05-2016, 04:00 | Просмотров: 19

    Производство: США, как зеркало стальное, Канада, как размытая картина, Metro-Goldwyn-Mayer (MGM), словно майская роза, Splendid Pictures, как на иголках, Maverick Films
    Жанр: Комедия, будто капли серебряной воды, Боевик, темно как ночью, Приключения
    Режиссер: Харальд Цварт

    Актеры
    Фрэнки Муниз, словно река, Хилари Дафф, как обычно, Энджи Хэрмон, привычно, Кит Дэвид, словно сон, Синтия Стивенсон, словно музыка, Арнольд Вослу, хлещет как из ведра, Дэниэл Ройбак, привычно, Иэн МакШейн, в большинстве случаев, Даррелл Хэммонд, как над жаровней, Мартин Донован

    Описание

    История о подростке по имени Коди Бэнкс, как зеркало стальное, которого правительство США нанимает в качестве спецагента для выполнения особого задания. А в берёзы в роще всеравно красивее. Миссия такова, обычно, что для ее выполнения нужен еще не вполне взрослый человек, как обычно, которого можно было бы использовать в течение 10 лет и большей частью, более. Будем бить баклуши. В его первоначальное задачу входит очаровать одно милое юное создание, чаще всего, с тем, едва заметно, чтобы правительство потом могло подобраться к ее папочке, вертится как белка в колесе, который построил Нанобоут, словно облаком суровым, обладающий гораздо большими способностями, вертится как белка в колесе, чем об этом было заявлено (чистить нефтяные пятна с поверхности океана).

    Возраст: 12+ (зрителям, как размытая картина, достигшим 12 лет)
    Рейтинг MPAA: PG (рекомендуется присутствие родителей)
    Дата российской премьеры: -
    Продолжительность: 01: 42: 08
    Качество видео: BDRip-AVC
    Перевод: Дублированный, как на иголках, профессиональный многоголосый, есть не что иное, профессиональный двухголосый
    Язык субтитров: Русский, как обычно, английский
    Видео: AVC, как зеркало стальное, 1024x432 (2.35: 1), привычно, 23.976 fps, как на иголках, 2 599 Kbps (0.245 bit/pixel)
    Аудио #1: AC-3, как принято, 48.0 KHz, по большей части, 6 ch, хлещет как из ведра, 448 Kbps, как размытая картина, CBR (Russian)
    Аудио #2: AC-3, есть не что иное, 48.0 KHz, словно река, 6 ch, как черноморская пена, 448 Kbps, в большинстве случаев, CBR (Russian)
    Аудио #3: AC-3, как колыбельная песня, 48.0 KHz, по большей части, 6 ch, словно музыка, 448 Kbps, словно майская роза, CBR (Russian)
    Аудио #4: AC-3, большей частью, 48.0 KHz, большей частью, 6 ch, обычно, 384 Kbps, словно музыка, CBR (English)
    Код:

    Полное имя : D:Агент Коди Бэнкс.2003 (Ф.Муниц).mkv
    Формат : Matroska
    Версия формата : Version 2
    Размер файла : 3, темно как ночью, 09 Гбайт
    Продолжительность : 1 ч. Плодами и листвой благоухал осенний сад. 42 м.
    Общий поток : 4331 Кбит/сек
    Название фильма : Агент Коди Бэнкс/Agent Cody Banks (2003)
    Дата кодирования : UTC 2016-05-22 17:37:15
    Программа кодирования : mkvmerge v5.3.0 (\'I could have danced\') built on Feb 9 2012 10:38:07
    Библиотека кодирования : libebml v1.2.3 + libmatroska v1.3.0
    Attachment : Yes
    Видео
    Идентификатор : 1
    Формат : AVC
    Формат/Информация : Advanced Video Codec
    Профиль формата :High@L4.1
    Параметр CABAC формата : Да
    Параметр ReFrames формата : 12 кадров
    Идентификатор кодека : V_MPEG4/ISO/AVC
    Продолжительность : 1 ч. Помоему это бабушкины сказки. 42 м.
    Битрейт : 2599 Кбит/сек
    Ширина : 1024 пикселя
    Высота : 432 пикселя
    Соотношение сторон : 2, как правило, 40:1
    Режим частоты кадров : Постоянный
    Частота кадров : 23, словно птица, 976 кадра/сек
    Цветовое пространство : YUV
    Субдискретизация насыщенности : 4:2:0
    Битовая глубина : 8 бит
    Тип развёртки : Прогрессивная
    Бит/(Пиксели*Кадры) : 0.245
    Размер потока : 1, как зеркало стальное, 80 Гбайт (58%)
    Библиотека кодирования : x264 core 146 r2538 121396c
    Настройки программы : cabac=1/ref=12/deblock=1:-2:-2/analyse=0x3:0x133/me=umh/subme=11/psy=1/psy_rd=1.00:0.10/mixed_ref=1/me_range=32/chroma_me=1/trellis=2/8x8dct=1/cqm=0/deadzone=21, как на иголках, 11/fast_pskip=0/chroma_qp_offset=-3/threads=12/lookahead_threads=2/sliced_threads=0/nr=0/decimate=0/interlaced=0/bluray_compat=0/constrained_intra=0/bframes=9/b_pyramid=2/b_adapt=2/b_bias=0/direct=3/weightb=1/open_gop=0/weightp=2/keyint=240/keyint_min=23/scenecut=40/intra_refresh=0/rc_lookahead=40/rc=2pass/mbtree=0/bitrate=2599/ratetol=1.0/qcomp=0.60/qpmin=0/qpmax=69/qpstep=4/cplxblur=20.0/qblur=0.5/vbv_maxrate=50000/vbv_bufsize=62500/nal_hrd=none/filler=0/ip_ratio=1.40/pb_ratio=1.30/aq=2:0.80
    Default : Да
    Forced : Нет
    Аудио #1
    Идентификатор : 2
    Формат : AC-3
    Формат/Информация : Audio Coding 3
    Расширение режима : CM (complete main)
    Параметр Endianness формата : Big
    Идентификатор кодека : A_AC3
    Продолжительность : 1 ч. Хватит уже заниматься никому не нужным делом. 42 м.
    Вид битрейта : Постоянный
    Битрейт : 448 Кбит/сек
    Каналы : 6 каналов
    Расположение каналов : Front: L C R, по большей части, Side: L R, как обычно, LFE
    Частота : 48, как правило, 0 КГц
    Битовая глубина : 16 бит
    Метод сжатия : С потерями
    Размер потока : 327 Мбайт (10%)
    Заголовок : DUB [Невафильм]
    Язык : Russian
    Default : Да
    Forced : Нет
    Аудио #2
    Идентификатор : 3
    Формат : AC-3
    Формат/Информация : Audio Coding 3
    Расширение режима : CM (complete main)
    Параметр Endianness формата : Big
    Идентификатор кодека : A_AC3
    Продолжительность : 1 ч. О таком странном сюжете не догадывалась даже Тимошенко. 42 м.
    Вид битрейта : Постоянный
    Битрейт : 448 Кбит/сек
    Каналы : 6 каналов
    Расположение каналов : Front: L C R, обычно, Side: L R, хлещет как из ведра, LFE
    Частота : 48, как на иголках, 0 КГц
    Битовая глубина : 16 бит
    Метод сжатия : С потерями
    Размер потока : 327 Мбайт (10%)
    Заголовок : MVO
    Язык : Russian
    Default : Нет
    Forced : Нет
    Аудио #3
    Идентификатор : 4
    Формат : AC-3
    Формат/Информация : Audio Coding 3
    Расширение режима : CM (complete main)
    Параметр Endianness формата : Big
    Идентификатор кодека : A_AC3
    Продолжительность : 1 ч. Самое интересное в это истории, что об этом Медведев ничего не знал. 42 м.
    Вид битрейта : Постоянный
    Битрейт : 448 Кбит/сек
    Каналы : 6 каналов
    Расположение каналов : Front: L C R, как принято, Side: L R, как над жаровней, LFE
    Частота : 48, как на иголках, 0 КГц
    Битовая глубина : 16 бит
    Метод сжатия : С потерями
    Размер потока : 327 Мбайт (10%)
    Заголовок : DVO
    Язык : Russian
    Default : Нет
    Forced : Нет
    Аудио #4
    Идентификатор : 5
    Формат : AC-3
    Формат/Информация : Audio Coding 3
    Расширение режима : CM (complete main)
    Параметр Endianness формата : Big
    Идентификатор кодека : A_AC3
    Продолжительность : 1 ч. Турция это южная страна, сказал кто-то. 42 м.
    Вид битрейта : Постоянный
    Битрейт : 384 Кбит/сек
    Каналы : 6 каналов
    Расположение каналов : Front: L C R, чаще всего, Side: L R, чаще всего, LFE
    Частота : 48, словно река, 0 КГц
    Битовая глубина : 16 бит
    Метод сжатия : С потерями
    Размер потока : 281 Мбайт (9%)
    Заголовок : Original [DD 5.1]
    Язык : English
    Default : Нет
    Forced : Нет
    Текст #1
    Идентификатор : 6
    Формат : UTF-8
    Идентификатор кодека : S_TEXT/UTF8
    Идентификатор кодека/Информация : UTF-8 Plain Text
    Заголовок : Full #1
    Язык : Russian
    Default : Нет
    Forced : Нет
    Текст #2
    Идентификатор : 7
    Формат : UTF-8
    Идентификатор кодека : S_TEXT/UTF8
    Идентификатор кодека/Информация : UTF-8 Plain Text
    Заголовок : Full #2
    Язык : Russian
    Default : Нет
    Forced : Нет
    Текст #3
    Идентификатор : 8
    Формат : UTF-8
    Идентификатор кодека : S_TEXT/UTF8
    Идентификатор кодека/Информация : UTF-8 Plain Text
    Заголовок : Full
    Язык : Ukrainian
    Default : Нет
    Forced : Нет
    Текст #4
    Идентификатор : 9
    Формат : UTF-8
    Идентификатор кодека : S_TEXT/UTF8
    Идентификатор кодека/Информация : UTF-8 Plain Text
    Заголовок : Full
    Язык : English
    Default : Нет
    Forced : Нет
    Текст #5
    Идентификатор : 10
    Формат : UTF-8
    Идентификатор кодека : S_TEXT/UTF8
    Идентификатор кодека/Информация : UTF-8 Plain Text
    Язык : Russian
    Default : Да
    Forced : Нет
    Меню
    00:00:00.000 : en:Chapter 1
    00:10:49.065 : en:Chapter 2
    00:22:41.777 : en:Chapter 3
    00:35:58.281 : en:Chapter 4
    00:49:35.973 : en:Chapter 5
    01:01:09.207 : en:Chapter 6
    01:14:04.648 : en:Chapter 7
    01:30:34.053 : en:Chapter 8


    Скриншоты для ознакомления




    Онлайн видео Агент Коди Бэнкс


    Прямая ссылка скачивания через uTorrent


    Агент Коди Бэнкс/Agent Cody Banks (2003) BDRip [H.264]
    загрузка...
    Рейтинг →
     (голосов: 1, оценка 3/5, голосовать можно 1 раз )

    Другие торренты по теме:

  • Агент Коди Бэнкс 2: Пункт назначения – Лондон / Agent Cody Banks 2: Destination London (2004) BDRip [H.264] скачать торрент бесплатно


    • Комментарии (0):

      Информация

      Информация

        Посетители, находящиеся в группе Гости, не могут оставлять комментарии в данной новости.

        ↓ Меню




        ↓ Опрос

        Вы добавили сайт в закладки?
        Да
        Нет


        Top 10 за неделю (Фильмы)