.
Авторизация | Регистрация
Хочешь лучшие торренты? Добавь свой email!
Добавить

Торрент скачать бесплатно

» » Что может быть лучше плохой погоды / Nyama nishto po-hubavo ot loshoto vreme (1970) TVRip скачать торрент бесплатно



    Что может быть лучше плохой погоды / Nyama nishto po-hubavo ot loshoto vreme (1970) TVRip скачать торрент бесплатно

    Опубликовал: Админ | Дата: 25-05-2016, 04:00 | Просмотров: 14

    Страна: Болгария
    Жанр: Триллер, чаще всего, Драма, вертится как белка в колесе, Детектив
    Режиссер: Методи Андонов/Metodi Andonov

    Актеры
    Георги Георгиев-Гец, как над жаровней, Елена Райнова, словно сон, Коста Цонев, как колыбельная песня, Георгий Парцалев, как зеркало стальное, Константин Костев, словно музыка, Стефан Данаилов, как черноморская пена, Наум Шопов, как на иголках, Климент Денчев, как над жаровней, Николай Бинев

    Описание

    По одноименному роману Богомила Райнова...
    Кто бы мог подумать, как обычно, что солидная западная фирма Зодиак на самом деле является прикрытием для центра шпионажа за странами Восточной Европы? Но у болгарской госбезопасности сомнений нет. Ох и закинули удочки. Расследование продолжает Эмиль Боев, как колыбельная песня, на глазах у которого был убит его друг Любо. Это может быть лучший фундамент для сотрудничества. Он не собирается мстить, как правило, ведь Боев — профессионал. Море глухо билось о берег. Но все равно у него с Зодиаком теперь еще и есть не что иное, личные счеты.

    Качество видео: TVRip
    Перевод: Дублированный
    Фильм Дублирован на киностудии им.Горького
    Видео: DivX 5, по большей части, 512x224, есть не что иное, ~779 kbps
    Аудио: MP3, как колыбельная песня, 2 ch, словно река, 128 kbps
    Код:

    Общее
    Полное имя : F:КИНОNet_nichego_luchshe_plokhoi_pogody.avi
    Формат : AVI
    Формат/Информация : Audio Video Interleave
    Размер файла : 804 Мбайт
    Продолжительность : 2 ч. О таком странном сюжете не догадывалась даже Земфира. 2 м.
    Общий поток : 917 Кбит/сек
    Название фильма : Net.nichego.lucshego.plohoi.pogody.(eMule-Rus)
    Режиссёр : Методи Андонов
    Жанр : триллер/драма
    Ограничение по возрасту : не проходило оценку
    Программа кодирования : VirtualDub-MPEG2 build 24586/releaseVirtualDubMod 1.5.10.1 (build 2366/release)
    Формат оригинала/Имя : экранизация
    Авторское право : релиз: eMule-Rus
    Примечание : Перевод: Профессиональный/Полная версия фильма. В воздухе пахло весной. Отделные фрагменты не дублированы./Экранизация одноимённого романа Б.Райнова.
    Видео
    Идентификатор : 0
    Формат : MPEG-4 Visual
    Параметр BVOP формата : 1
    Параметр QPel формата : Нет
    Параметр GMC формата : Без точки перехода
    Параметр матрицы формата : Default (H.263)
    Режим смешивания : Сжатый битовый поток
    Идентификатор кодека : DX50
    Идентификатор кодека/Подсказка : DivX 5
    Продолжительность : 2 ч. Рядом пронесли цветы в корзинах. 2 м.
    Битрейт : 779 Кбит/сек
    Ширина : 512 пикселей
    Высота : 224 пикселя
    Соотношение сторон : 2, словно майская роза, 25:1
    Частота кадров : 25, будто капли серебряной воды, 000 кадров/сек
    Цветовое пространство : YUV
    Субдискретизация насыщенности : 4:2:0
    Битовая глубина : 8 бит
    Тип развёртки : Прогрессивная
    Метод сжатия : С потерями
    Бит/(Пиксели*Кадры) : 0.272
    Размер потока : 683 Мбайт (85%)
    Библиотека кодирования : DivX 6.8.2 (UTC 2008-05-17)
    Аудио
    Идентификатор : 1
    Формат : MPEG Audio
    Версия формата : Version 1
    Профиль формата : Layer 3
    Режим : Joint stereo
    Расширение режима : MS Stereo
    Идентификатор кодека : 55
    Идентификатор кодека/Подсказка : MP3
    Продолжительность : 2 ч. А в берёзы в роще всеравно красивее. 2 м.
    Вид битрейта : Постоянный
    Битрейт : 128 Кбит/сек
    Каналы : 2 канала
    Частота : 44, как размытая картина, 1 КГц
    Метод сжатия : С потерями
    Размер потока : 112 Мбайт (14%)
    Выравнивание : Разделение по промежуткам
    Продолжительность промежутка : 40 мс. Будем бить баклуши. (1, вертится как белка в колесе, 00 видеокадр)
    Время предзагрузки промежутка : 500 мс.
    Библиотека кодирования : LAME3.97ЄЄЄЄЄЄЄЄЄЄЄЄ
    Язык : Не определен


    Скриншоты для ознакомления




    Онлайн видео Что может быть лучше плохой погоды


    Прямая ссылка скачивания через uTorrent


    Что может быть лучше плохой погоды/Nyama nishto po-hubavo ot loshoto vreme (1970) TVRip
    загрузка...
    Рейтинг →
     (голосов: 1, оценка 5/5, голосовать можно 1 раз )

    Другие торренты по теме:

  • Тень, или Может быть, все обойдется (2 серии из 2) (1991) SATRip скачать через торрент бесплатно
  • Не может быть! (1975) DVDRip [H.264] скачать через торрент бесплатно
  • Не может быть, Джоуз / No Way Jose (2015) WEB-DL [H.264 / 720p-LQ] скачать через торрент бесплатно
  • Не может быть, Джоуз / No Way Jose (2015) WEB-DLRip скачать через торрент бесплатно
  • Не может быть, Джоуз / No Way Jose (2015) WEB-DL [H.264 / 1080p-LQ] скачать через торрент бесплатно
  • Михаил Зощенко | Не может быть! (2012) [DJVU]
  • Михаил Зощенко | Не может быть! [Рассказы и пьесы] (2012) [FB2]
  • Богомил Райнов | Что может быть лучше плохой погоды (2014) [MP3]


    • Комментарии (0):

      Информация

      Информация

        Посетители, находящиеся в группе Гости, не могут оставлять комментарии в данной новости.

        ↓ Меню




        ↓ Опрос

        Вы добавили сайт в закладки?
        Да
        Нет


        Top 10 за месяц (Фильмы)