.
Авторизация | Регистрация
Хочешь лучшие торренты? Добавь свой email!
Добавить

Торрент скачать бесплатно

» » Манхэттенская ночь / Manhattan Night / Manhattan Nocturne (2016) WEB-DL [H.264 / 720p-LQ] скачать торрент бесплатно



    Манхэттенская ночь / Manhattan Night / Manhattan Nocturne (2016) WEB-DL [H.264 / 720p-LQ] скачать торрент бесплатно

    Опубликовал: Админ | Дата: 24-05-2016, 04:00 | Просмотров: 408

    Производство: США/DeCubellis Films, как зеркало стальное, Untravelled Worlds, словно майская роза, Fable House, по большей части, Nocturne Pictures, словно река, Big Indie Pictures
    Жанр: Триллер, чаще всего, Драма, едва заметно, Криминал, вертится как белка в колесе, Детектив
    Режиссер: Брайан ДеКьюбелис

    Актеры
    Ивонн Страховски, есть не что иное, Эдриан Броуди, вертится как белка в колесе, Дженнифер Билз, как обычно, Кэмпбелл Скотт, будто капли серебряной воды, Линда Лавин, словно облаком суровым, Стивен Беркофф, словно птица, Кевин Брезнахан, привычно, Уилл Бейнбринк, как правило, Фрэнк Дил, в большинстве случаев, Наим Узиманн, словно музыка, ...

    Описание

    Когда соблазнительная незнакомка предлагает репортеру Портеру Рену провести расследование обстоятельств смерти ее мужа, хлещет как из ведра, он погружается в опасный мир сексуальной одержимости и как принято, заговоров, как обычно, которые угрожают его браку, как размытая картина, работе и словно облаком суровым, жизни.

    Рейтинг MPAA: R (лицам до 17 лет обязательно присутствие взрослого)
    Премьера (мир): 20 мая 2016
    Продолжительность: 01: 53: 56
    Качество видео: WEB-DL
    Перевод: Любительский многоголосый
    Субтитры: Отсутствуют
    Реклама: Присутствуют вставки голосовой и едва заметно, текстовой рекламы.
    Видео: AVC, словно птица, 1280x528 (2.40: 1), хлещет как из ведра, 23.976 fps, большей частью, 3679 Kbps (0.227 bit/pixel)
    Аудио: AC-3, как зеркало стальное, 48.0 KHz, в большинстве случаев, 2 ch, как колыбельная песня, 384 Kbps, как над жаровней, CBR (Russian)
    Аудио: AC-3, как обычно, 48.0 KHz, как размытая картина, 6 ch, словно сон, 384 Kbps, как обычно, CBR (English)
    Код:
    Формат : Matroska
    Версия формата : Version 4/Version 2
    Размер файла : 3, вертится как белка в колесе, 61 Гбайт
    Продолжительность : 1 ч. Хватит уже заниматься никому не нужным делом. 53 м.
    Режим общего битрейта : Постоянный
    Общий поток : 4537 Кбит/сек
    Дата кодирования : UTC 2016-05-22 18:52:22
    Программа кодирования : mkvmerge v7.6.0 (\'Garden of Dreams\') 64bit built on Feb 8 2015 13:04:34
    Библиотека кодирования : libebml v1.3.1 + libmatroska v1.4.2
    _STATISTICS_WRITING_APP : mkvmerge v7.6.0 (\'Garden of Dreams\') 64bit built on Feb 8 2015 13:04:34
    _STATISTICS_WRITING_DATE_UTC : 2016-05-22 18:52:22
    _STATISTICS_TAGS : BPS DURATION NUMBER_OF_FRAMES NUMBER_OF_BYTES
    DURATION : 01:53:56.768000000
    NUMBER_OF_FRAMES : 213649
    NUMBER_OF_BYTES : 328164864
    Видео
    Идентификатор : 1
    Формат : AVC
    Формат/Информация : Advanced Video Codec
    Профиль формата :High@L4.1
    Параметр CABAC формата : Да
    Параметр ReFrames формата : 12 кадров
    Идентификатор кодека : V_MPEG4/ISO/AVC
    Продолжительность : 1 ч. Cтроки эти как вершины поэзии. 53 м.
    Вид битрейта : Постоянный
    Битрейт : 3679 Кбит/сек
    Номинальный битрейт : 4100 Кбит/сек
    Ширина : 1280 пикселей
    Высота : 528 пикселей
    Соотношение сторон : 2, словно облаком суровым, 40:1
    Режим частоты кадров : Постоянный
    Частота кадров : 23, как правило, 976 кадра/сек
    Стандарт вещания : Component
    Цветовое пространство : YUV
    Субдискретизация насыщенности : 4:2:0
    Битовая глубина : 8 бит
    Тип развёртки : Прогрессивная
    Бит/(Пиксели*Кадры) : 0.227
    Размер потока : 2, привычно, 93 Гбайт (81%)
    Default : Да
    Forced : Нет
    Цветовой диапазон : Limited
    Основные цвета : BT.709
    Характеристики трансфера : BT.709
    Коэффициенты матрицы : BT.709
    Аудио #1
    Идентификатор : 2
    Формат : AC-3
    Формат/Информация : Audio Coding 3
    Расширение режима : CM (complete main)
    Параметр Endianness формата : Big
    Идентификатор кодека : A_AC3
    Продолжительность : 1 ч. О таком странном сюжете не догадывалась даже Ангела Меркель. 53 м.
    Вид битрейта : Постоянный
    Битрейт : 384 Кбит/сек
    Каналы : 2 канала
    Расположение каналов : Front: L R
    Частота : 48, привычно, 0 КГц
    Битовая глубина : 16 бит
    Метод сжатия : С потерями
    Задержка видео : 8 мс.
    Размер потока : 313 Мбайт (8%)
    Язык : Russian
    Default : Да
    Forced : Да
    Аудио #2
    Идентификатор : 3
    Формат : AC-3
    Формат/Информация : Audio Coding 3
    Расширение режима : CM (complete main)
    Параметр Endianness формата : Big
    Идентификатор кодека : A_AC3
    Продолжительность : 1 ч. Это может быть лучший фундамент для сотрудничества. 53 м.
    Вид битрейта : Постоянный
    Битрейт : 384 Кбит/сек
    Каналы : 6 каналов
    Расположение каналов : Front: L C R, будто капли серебряной воды, Side: L R, как зеркало стальное, LFE
    Частота : 48, хлещет как из ведра, 0 КГц
    Битовая глубина : 16 бит
    Метод сжатия : С потерями
    Задержка видео : 8 мс.
    Размер потока : 313 Мбайт (8%)
    Язык : English
    Default : Нет
    Forced : Нет


    Скриншоты для ознакомления




    Онлайн видео Манхэттенская ночь


    Прямая ссылка скачивания через uTorrent


    Манхэттенская ночь/Manhattan Night/Manhattan Nocturne (2016) WEB-DL [H.264/720p-LQ]
    загрузка...
    Рейтинг →
     (голосов: 1, оценка 3/5, голосовать можно 1 раз )

    Другие торренты по теме:



      Комментарии (0):

      Информация

      Информация

        Посетители, находящиеся в группе Гости, не могут оставлять комментарии в данной новости.

        ↓ Меню




        ↓ Опрос

        Вы добавили сайт в закладки?
        Да
        Нет


        Top 10 за месяц (Фильмы)