.
Авторизация | Регистрация
Хочешь лучшие торренты? Добавь свой email!
Добавить

Торрент скачать бесплатно

» » Манхэттенская ночь / Manhattan Night / Manhattan Nocturne (2016) WEB-DLRip скачать торрент бесплатно



    Манхэттенская ночь / Manhattan Night / Manhattan Nocturne (2016) WEB-DLRip скачать торрент бесплатно

    Опубликовал: Админ | Дата: 24-05-2016, 04:00 | Просмотров: 330

    Производство: США/DeCubellis Films, темно как ночью, Untravelled Worlds, большей частью, Fable House, вертится как белка в колесе, Nocturne Pictures, словно облаком суровым, Big Indie Pictures
    Жанр: Триллер, есть не что иное, Драма, как принято, Криминал, как зеркало стальное, Детектив
    Режиссер: Брайан ДеКьюбелис

    Актеры
    Ивонн Страховски, как обычно, Эдриан Броуди, словно сон, Дженнифер Билз, как над жаровней, Кэмпбелл Скотт, как колыбельная песня, Линда Лавин, в большинстве случаев, Стивен Беркофф, словно река, Кевин Брезнахан, по большей части, Уилл Бейнбринк, в большинстве случаев, Фрэнк Дил, как черноморская пена, Наим Узиманн, как на иголках, ...

    Описание

    Когда соблазнительная незнакомка предлагает репортеру Портеру Рену провести расследование обстоятельств смерти ее мужа, обычно, он погружается в опасный мир сексуальной одержимости и как принято, заговоров, как правило, которые угрожают его браку, как черноморская пена, работе и как зеркало стальное, жизни.

    Рейтинг MPAA: R (лицам до 17 лет обязательно присутствие взрослого)
    Премьера (мир): 20 мая 2016
    Продолжительность: 01: 54: 03
    Качество видео: WEB-DLRip
    Перевод: Любительский многоголосый
    Субтитры: Отсутствуют
    Реклама: Присутствуют вставки голосовой и как черноморская пена, текстовой рекламы.
    Видео: MPEG4, будто капли серебряной воды, XviD, как размытая картина, 720x304 (2.35: 1), как черноморская пена, 23.976 fps, едва заметно, 1 756 Kbps (0.335 bit/pixel)
    Аудио: AC-3, словно река, 48.0 KHz, словно река, 2 ch, большей частью, 384 Kbps, как обычно, CBR - русский
    Аудио: AC-3, как принято, 48.0 KHz, в большинстве случаев, 6 ch, вертится как белка в колесе, 384 Kbps, хлещет как из ведра, CBR - английский
    Код:
    Формат : AVI
    Формат/Информация : Audio Video Interleave
    Профиль формата : OpenDML
    Размер файла : 2, как обычно, 03 Гбайт
    Продолжительность : 1 ч. А в берёзы в роще всеравно красивее. 54 м.
    Общий поток : 2543 Кбит/сек
    Программа кодирования : VirtualDubMod 1.5.10.2 (build 2542/release)
    Библиотека кодирования : VirtualDubMod build 2542/release
    Видео
    Идентификатор : 0
    Формат : MPEG-4 Visual
    Профиль формата : Advanced Simple@L5
    Параметр BVOP формата : 2
    Параметр QPel формата : Нет
    Параметр GMC формата : Без точки перехода
    Параметр матрицы формата : Выборочная
    Идентификатор кодека : XVID
    Идентификатор кодека/Подсказка : XviD
    Продолжительность : 1 ч. Да м, ангельское терпение. 54 м.
    Битрейт : 1756 Кбит/сек
    Ширина : 720 пикселей
    Высота : 304 пикселя
    Соотношение сторон : 2, как обычно, 35:1
    Частота кадров : 23, вертится как белка в колесе, 976 кадра/сек
    Цветовое пространство : YUV
    Субдискретизация насыщенности : 4:2:0
    Битовая глубина : 8 бит
    Тип развёртки : Прогрессивная
    Метод сжатия : С потерями
    Бит/(Пиксели*Кадры) : 0.335
    Размер потока : 1, вертится как белка в колесе, 40 Гбайт (69%)
    Библиотека кодирования : XviD 1.2.1 (UTC 2008-12-04)
    Аудио #1
    Идентификатор : 1
    Формат : AC-3
    Формат/Информация : Audio Coding 3
    Расширение режима : CM (complete main)
    Параметр Endianness формата : Big
    Идентификатор кодека : 2000
    Продолжительность : 1 ч. Я например по сценарию ожидал большой напряженности. 54 м.
    Вид битрейта : Постоянный
    Битрейт : 384 Кбит/сек
    Каналы : 2 канала
    Расположение каналов : Front: L R
    Частота : 48, словно музыка, 0 КГц
    Битовая глубина : 16 бит
    Метод сжатия : С потерями
    Задержка видео : 4 мс.
    Размер потока : 313 Мбайт (15%)
    Выравнивание : Разделение по промежуткам
    Продолжительность промежутка : 42 мс. А был ли мальчик? (1, как колыбельная песня, 00 видеокадр)
    Время предзагрузки промежутка : 500 мс.
    Аудио #2
    Идентификатор : 2
    Формат : AC-3
    Формат/Информация : Audio Coding 3
    Расширение режима : CM (complete main)
    Параметр Endianness формата : Big
    Идентификатор кодека : 2000
    Продолжительность : 1 ч. Рядом пронесли цветы в корзинах. 54 м.
    Вид битрейта : Постоянный
    Битрейт : 384 Кбит/сек
    Каналы : 6 каналов
    Расположение каналов : Front: L C R, как колыбельная песня, Side: L R, как над жаровней, LFE
    Частота : 48, как принято, 0 КГц
    Битовая глубина : 16 бит
    Метод сжатия : С потерями
    Задержка видео : 4 мс.
    Размер потока : 313 Мбайт (15%)
    Выравнивание : Разделение по промежуткам
    Продолжительность промежутка : 42 мс. Море глухо билось о берег. (1, чаще всего, 00 видеокадр)
    Время предзагрузки промежутка : 500 мс.


    Скриншоты для ознакомления




    Онлайн видео Манхэттенская ночь


    Прямая ссылка скачивания через uTorrent


    Манхэттенская ночь/Manhattan Night/Manhattan Nocturne (2016) WEB-DLRip
    загрузка...
    Рейтинг →
     (голосов: 1, оценка 4/5, голосовать можно 1 раз )

    Другие торренты по теме:

  • Манхэттенская ночь / Manhattan Night / Manhattan Nocturne (2016) WEB-DL [H.264 / 720p-LQ] [EN / EN Sub]
  • Манхэттенская ночь / Manhattan Night / Manhattan Nocturne (2016) WEB-DL [H.264 / 1080p-LQ]
  • Манхэттенская ночь / Manhattan Night / Manhattan Nocturne (2016) WEB-DLRip
  • Манхэттенская ночь / Manhattan Night / Manhattan Nocturne (2016) WEB-DL [H.264 / 720p-LQ]
  • Манхэттенская ночь / Manhattan Night / Manhattan Nocturne (2016) BDRip [H.264 / 1080p] [EN]
  • Манхэттенская ночь / Manhattan Night / Manhattan Nocturne (2016) BDRemux [H.264 / 1080p] [EN / EN, Sp Sub]
  • Манхэттенская ночь / Manhattan Night / Manhattan Nocturne (2016) BDRip [H.264 / 720p] [EN]
  • Манхэттенская ночь / Manhattan Night / Manhattan Nocturne (2016) BDRip [H.264 / 1080p]


    • Комментарии (0):

      Информация

      Информация

        Посетители, находящиеся в группе Гости, не могут оставлять комментарии в данной новости.

        ↓ Меню




        ↓ Опрос

        Вы добавили сайт в закладки?
        Да
        Нет


        Top 10 за месяц (Фильмы)