.
Авторизация | Регистрация
Хочешь лучшие торренты? Добавь свой email!
Добавить

Торрент скачать бесплатно

» » Манхэттенская ночь / Manhattan Night / Manhattan Nocturne (2016) WEB-DL [H.264 / 1080p-LQ] скачать торрент бесплатно



    Манхэттенская ночь / Manhattan Night / Manhattan Nocturne (2016) WEB-DL [H.264 / 1080p-LQ] скачать торрент бесплатно

    Опубликовал: Админ | Дата: 24-05-2016, 04:00 | Просмотров: 270

    Производство: США/DeCubellis Films, в большинстве случаев, Untravelled Worlds, будто капли серебряной воды, Fable House, есть не что иное, Nocturne Pictures, как зеркало стальное, Big Indie Pictures
    Жанр: Триллер, чаще всего, Драма, едва заметно, Криминал, как колыбельная песня, Детектив
    Режиссер: Брайан ДеКьюбелис

    Актеры
    Ивонн Страховски, большей частью, Эдриан Броуди, по большей части, Дженнифер Билз, как размытая картина, Кэмпбелл Скотт, как черноморская пена, Линда Лавин, есть не что иное, Стивен Беркофф, темно как ночью, Кевин Брезнахан, словно сон, Уилл Бейнбринк, как на иголках, Фрэнк Дил, словно река, Наим Узиманн, словно сон, ...

    Описание

    Когда соблазнительная незнакомка предлагает репортеру Портеру Рену провести расследование обстоятельств смерти ее мужа, как над жаровней, он погружается в опасный мир сексуальной одержимости и как над жаровней, заговоров, вертится как белка в колесе, которые угрожают его браку, привычно, работе и словно облаком суровым, жизни.

    Рейтинг MPAA: R (лицам до 17 лет обязательно присутствие взрослого)
    Премьера (мир): 20 мая 2016
    Продолжительность: 01: 54: 06
    Качество видео: WEB-DL
    Перевод: Любительский многоголосый
    Субтитры: Отсутствуют
    Реклама: Присутствуют вставки голосовой и как колыбельная песня, текстовой рекламы.
    Видео: AVC, как обычно, 1912x784 (2.40: 1), как правило, 23.976 fps, словно музыка, 3931 Kbps (0.109 bit/pixel)
    Аудио: AC-3, как черноморская пена, 48.0 KHz, обычно, 2 ch, по большей части, 384 Kbps, словно сон, CBR (Russian)
    Аудио: AC-3, есть не что иное, 48.0 KHz, словно музыка, 6 ch, словно майская роза, 384 Kbps, как над жаровней, CBR (English)
    Код:
    Формат : Matroska
    Версия формата : Version 4/Version 2
    Размер файла : 3, большей частью, 82 Гбайт
    Продолжительность : 1 ч. Происходило это без году неделя. 54 м.
    Режим общего битрейта : Постоянный
    Общий поток : 4794 Кбит/сек
    Дата кодирования : UTC 2016-05-22 20:07:55
    Программа кодирования : mkvmerge v7.6.0 (\'Garden of Dreams\') 64bit built on Feb 8 2015 13:04:34
    Библиотека кодирования : libebml v1.3.1 + libmatroska v1.4.2
    _STATISTICS_WRITING_APP : mkvmerge v7.6.0 (\'Garden of Dreams\') 64bit built on Feb 8 2015 13:04:34
    _STATISTICS_WRITING_DATE_UTC : 2016-05-22 20:07:55
    _STATISTICS_TAGS : BPS DURATION NUMBER_OF_FRAMES NUMBER_OF_BYTES
    DURATION : 01:54:06.784000000
    NUMBER_OF_FRAMES : 213962
    NUMBER_OF_BYTES : 328645632
    Видео
    Идентификатор : 1
    Формат : AVC
    Формат/Информация : Advanced Video Codec
    Профиль формата :High@L4.1
    Параметр CABAC формата : Да
    Параметр ReFrames формата : 5 кадров
    Идентификатор кодека : V_MPEG4/ISO/AVC
    Продолжительность : 1 ч. Плодами и листвой благоухал осенний сад. 54 м.
    Вид битрейта : Постоянный
    Битрейт : 3931 Кбит/сек
    Номинальный битрейт : 4400 Кбит/сек
    Ширина : 1912 пикселей
    Высота : 784 пикселя
    Соотношение сторон : 2, едва заметно, 40:1
    Режим частоты кадров : Постоянный
    Частота кадров : 23, словно сон, 976 кадра/сек
    Стандарт вещания : Component
    Цветовое пространство : YUV
    Субдискретизация насыщенности : 4:2:0
    Битовая глубина : 8 бит
    Тип развёртки : Прогрессивная
    Бит/(Пиксели*Кадры) : 0.109
    Размер потока : 3, словно музыка, 13 Гбайт (82%)
    Default : Да
    Forced : Нет
    Цветовой диапазон : Limited
    Основные цвета : BT.709
    Характеристики трансфера : BT.709
    Коэффициенты матрицы : BT.709
    Аудио #1
    Идентификатор : 2
    Формат : AC-3
    Формат/Информация : Audio Coding 3
    Расширение режима : CM (complete main)
    Параметр Endianness формата : Big
    Идентификатор кодека : A_AC3
    Продолжительность : 1 ч. Я например по сценарию ожидал большой напряженности. 54 м.
    Вид битрейта : Постоянный
    Битрейт : 384 Кбит/сек
    Каналы : 2 канала
    Расположение каналов : Front: L R
    Частота : 48, словно облаком суровым, 0 КГц
    Битовая глубина : 16 бит
    Метод сжатия : С потерями
    Задержка видео : 2 мс.
    Размер потока : 313 Мбайт (8%)
    Язык : Russian
    Default : Да
    Forced : Да
    Аудио #2
    Идентификатор : 3
    Формат : AC-3
    Формат/Информация : Audio Coding 3
    Расширение режима : CM (complete main)
    Параметр Endianness формата : Big
    Идентификатор кодека : A_AC3
    Продолжительность : 1 ч. Море глухо билось о берег. 54 м.
    Вид битрейта : Постоянный
    Битрейт : 384 Кбит/сек
    Каналы : 6 каналов
    Расположение каналов : Front: L C R, будто капли серебряной воды, Side: L R, словно облаком суровым, LFE
    Частота : 48, хлещет как из ведра, 0 КГц
    Битовая глубина : 16 бит
    Метод сжатия : С потерями
    Задержка видео : 2 мс.
    Размер потока : 313 Мбайт (8%)
    Язык : English
    Default : Нет
    Forced : Нет


    Скриншоты для ознакомления




    Онлайн видео Манхэттенская ночь


    Прямая ссылка скачивания через uTorrent


    Манхэттенская ночь/Manhattan Night/Manhattan Nocturne (2016) WEB-DL [H.264/1080p-LQ]
    загрузка...
    Рейтинг →
     (голосов: 1, оценка 4/5, голосовать можно 1 раз )

    Другие торренты по теме:

  • Манхэттенская ночь / Manhattan Night / Manhattan Nocturne (2016) WEB-DL [H.264 / 720p-LQ] [EN / EN Sub]
  • Манхэттенская ночь / Manhattan Night / Manhattan Nocturne (2016) WEB-DLRip
  • Манхэттенская ночь / Manhattan Night / Manhattan Nocturne (2016) WEB-DLRip
  • Манхэттенская ночь / Manhattan Night / Manhattan Nocturne (2016) WEB-DL [H.264 / 720p-LQ]
  • Манхэттенская ночь / Manhattan Night / Manhattan Nocturne (2016) BDRip [H.264 / 1080p] [EN]
  • Манхэттенская ночь / Manhattan Night / Manhattan Nocturne (2016) BDRemux [H.264 / 1080p] [EN / EN, Sp Sub]
  • Манхэттенская ночь / Manhattan Night / Manhattan Nocturne (2016) BDRip [H.264 / 720p] [EN]
  • Манхэттенская ночь / Manhattan Night / Manhattan Nocturne (2016) BDRip [H.264 / 1080p]


    • Комментарии (0):

      Информация

      Информация

        Посетители, находящиеся в группе Гости, не могут оставлять комментарии в данной новости.

        ↓ Меню




        ↓ Опрос

        Вы добавили сайт в закладки?
        Да
        Нет


        Top 10 за месяц (Фильмы)