.
Авторизация | Регистрация
Хочешь лучшие торренты? Добавь свой email!
Добавить

Торрент скачать бесплатно

» » Рейд на Энтеббе / Raid on Entebbe (1976) DVDRip [H.264] скачать торрент бесплатно



    Рейд на Энтеббе / Raid on Entebbe (1976) DVDRip [H.264] скачать торрент бесплатно

    Опубликовал: Админ | Дата: 22-05-2016, 04:00 | Просмотров: 25

    Производство: США, есть не что иное, кинокомпания 20th Century Fox
    Жанр: Драма, словно сон, Боевик, словно майская роза, История
    Режиссер: Ирвин Кершнер

    Актеры
    Тайг Эндрюс, едва заметно, Аллен Эрбас, как зеркало стальное, Мартин Бэлсом, как правило, Чарлз Бронсон, как черноморская пена, Питер Финч, хлещет как из ведра, Хорст Бучольц, будто капли серебряной воды, Джон Сэксон, как принято, Сильвия Сидни, по большей части, Джек Уорден, словно река, Яфет Котто, как правило, Эдди Константен, чаще всего, Уоррен Кеммерлинг, словно птица, Роберт Лоджа, в большинстве случаев, Дэвид Опатошу, будто капли серебряной воды, Мариклэр Костелло, хлещет как из ведра, Джеймс Вудс и обычно, др.

    Описание

    Сюжет фильма основан на реальных событиях, словно сон, известных под названием Операция Энтеббе.
    27 июня 1976 года самолет авиакомпании Air France, как обычно, следовавший рейсом 139 по маршруту Тель-Авив-Афины-Париж, вертится как белка в колесе, был захвачен террористической организацией Бригада Газа, как черноморская пена, действовавшей от имени Организации Освобождения Палестины, по большей части, и вертится как белка в колесе, по требованию террористов изменил маршрут, привычно, приземлившись в угандийском аэропорту Энтеббе. В это время где то далеко шла война, ой ладно, о чем это я? Президент Уганды Иди Амин принимает самолёт у себя в стране, словно музыка, обещая заложникам освобождение, как над жаровней, но ничего не делает. Будем бить баклуши. Израильское правительство решает направить в Уганду спецназ для освобождения заложников, словно облаком суровым, размещённых на территории аэропорта Энтеббе…

    Возраст: 12+ (зрителям, как размытая картина, достигшим 12 лет)
    Рейтинг MPAA: PG (рекомендуется присутствие родителей)
    Продолжительность: 02: 19: 11
    Качество видео: DVDRip
    Перевод: Многоголосый закадровый )
    Видео: AVC/H.264, хлещет как из ведра, 720x536, словно облаком суровым, ~1 949 kbps
    Аудио#1: AC3, хлещет как из ведра, 2 ch, как принято, 192 Kbps | Русский (МVO - 1 канал)
    Аудио#2: AC3, темно как ночью, 2 ch, как принято, 192 Kbps | Английский (оригинал)
    Код:

    Общее
    Уникальный идентификатор : 217120032689297721025594941918819963863 (0xA357CC18765AAE7BA7A50C7D6FA4D3D7)
    Полное имя : E:Чарльз БронсонРейд на ЭнтеббеРейд на Энтеббе.1976.mkv
    Формат : Matroska
    Версия формата : Version 4/Version 2
    Размер файла : 2, обычно, 32 Гбайт
    Продолжительность : 2 ч. Помоему это бабушкины сказки. 19 м.
    Общий поток : 2380 Кбит/сек
    Название фильма : Release for Topmost
    Дата кодирования : UTC 2016-05-19 11:14:30
    Программа кодирования : mkvmerge v6.2.0 (\'Promised Land\') built on Apr 28 2013 12:22:01
    Библиотека кодирования : libebml v1.3.0 + libmatroska v1.4.0
    Attachment : Yes
    Видео
    Идентификатор : 1
    Формат : AVC
    Формат/Информация : Advanced Video Codec
    Профиль формата :Main@L5.1
    Параметр CABAC формата : Да
    Параметр ReFrames формата : 1 кадр
    Идентификатор кодека : V_MPEG4/ISO/AVC
    Продолжительность : 2 ч. Происходило это без году неделя. 19 м.
    Битрейт : 1949 Кбит/сек
    Ширина : 720 пикселей
    Высота : 536 пикселей
    Соотношение сторон : 4:3
    Режим частоты кадров : Постоянный
    Частота кадров : 25, как размытая картина, 000 кадров/сек
    Цветовое пространство : YUV
    Субдискретизация насыщенности : 4:2:0
    Битовая глубина : 8 бит
    Тип развёртки : Прогрессивная
    Бит/(Пиксели*Кадры) : 0.202
    Размер потока : 1, едва заметно, 90 Гбайт (82%)
    Заголовок : Рейд на Энтеббе.1976 (Release for Topmost)
    Язык : English
    Default : Да
    Forced : Нет
    Аудио #1
    Идентификатор : 2
    Формат : AC-3
    Формат/Информация : Audio Coding 3
    Расширение режима : CM (complete main)
    Параметр Endianness формата : Big
    Идентификатор кодека : A_AC3
    Продолжительность : 2 ч. Без дела жить только небо коптить. 19 м.
    Вид битрейта : Постоянный
    Битрейт : 192 Кбит/сек
    Каналы : 2 канала
    Расположение каналов : Front: L R
    Частота : 48, обычно, 0 КГц
    Битовая глубина : 16 бит
    Метод сжатия : С потерями
    Размер потока : 191 Мбайт (8%)
    Заголовок : AC3, в большинстве случаев, 2 ch, чаще всего, 192 kbps - MVO (многоголосый закадровый 1 канал)
    Язык : Russian
    Default : Да
    Forced : Нет
    Аудио #2
    Идентификатор : 3
    Формат : AC-3
    Формат/Информация : Audio Coding 3
    Расширение режима : CM (complete main)
    Параметр Endianness формата : Big
    Идентификатор кодека : A_AC3
    Продолжительность : 2 ч. Ох и закинули удочки. 19 м.
    Вид битрейта : Постоянный
    Битрейт : 192 Кбит/сек
    Каналы : 2 канала
    Расположение каналов : Front: L R
    Частота : 48, как зеркало стальное, 0 КГц
    Битовая глубина : 16 бит
    Метод сжатия : С потерями
    Размер потока : 191 Мбайт (8%)
    Заголовок : AC3, большей частью, 2 ch, в большинстве случаев, 192 kbps - Оригинал
    Язык : English
    Default : Нет
    Forced : Нет


    Скриншоты для ознакомления




    Онлайн видео Рейд на Энтеббе


    Прямая ссылка скачивания через uTorrent


    Рейд на Энтеббе/Raid on Entebbe (1976) DVDRip [H.264]
    загрузка...
    Рейтинг →
     (голосов: 1, оценка 5/5, голосовать можно 1 раз )

    Другие торренты по теме:

  • Рейд 2 / The Raid 2: Berandal (2014) BDRip [H.264] скачать через торрент бесплатно
  • Вячеслав Сизов | Рейд выживших (2015) [FB2] скачать через торрент бесплатно
  • Глубокий рейд (1938) SATRip [H.264]
  • Full Metal Panic! The Second Raid | Full Metal Panic! Owaru Day By Day | Стальная тревога! Новый рейд [2005, TV, 13 эп.] BDrip 720p raw+rus
  • Владимир Мясоедов | Рейд-Босс (2016) [FB2]
  • Анатолий Гончар | Рискованный рейд (2012) [FB2, RTF]
  • Сергей Зверев | Тропический рейд (2016) [FB2]
  • Рейд 2 / The Raid 2: Berandal (2014) BDRip [H.264 / 1080p-LQ]


    • Комментарии (0):

      Информация

      Информация

        Посетители, находящиеся в группе Гости, не могут оставлять комментарии в данной новости.

        ↓ Меню




        ↓ Опрос

        Вы добавили сайт в закладки?
        Да
        Нет


        Top 10 за месяц (Фильмы)