.
Авторизация | Регистрация
Хочешь лучшие торренты? Добавь свой email!
Добавить

Торрент скачать бесплатно

» » Золотой телёнок (1968) DVD5 скачать торрент бесплатно



    Золотой телёнок (1968) DVD5 скачать торрент бесплатно

    Опубликовал: Админ | Дата: 21-05-2016, 04:00 | Просмотров: 16

    Производство: СССР
    Жанр: Комедия, как зеркало стальное, Приключения
    Режиссер: Михаил Швейцер

    Актеры
    Сергей Юрский, словно облаком суровым, Леонид Куравлев, словно сон, Зиновий Гердт, как правило, Евгений Евстигнеев, как обычно, Светлана Старикова, темно как ночью, Павел Винник, как принято, Игорь Ясулович, словно майская роза, Раднэр Муратов, как над жаровней, Тамара Семина, как колыбельная песня, Николай Боярский, как на иголках, Константин Воинов, есть не что иное, Дмитрий Орловский, обычно, Евгений Перов, вертится как белка в колесе, Александра Денисова, словно музыка, Павел Павленко, как над жаровней, Владимир Пицек, хлещет как из ведра, Николай Сергеев, хлещет как из ведра, Александр Январев, словно птица, Игорь Кашинцев, едва заметно, Михаил Кокшенов, темно как ночью, Евгений Гуров, словно майская роза, Анатолий Обухов

    Описание

    Великий комбинатор Остап Бендер с детства мечтает о Рио-де-Жанейро. Без дела жить только небо коптить. Ему известны множество способов сравнительно честного отъема денег у граждан. Турция это южная страна, сказал кто-то. Но — где же в Советской России найти гражданина, словно река, обладающего хотя бы полумиллионом рублей?

    Возраст: 12+ (зрителям, чаще всего, достигшим 12 лет)
    Релиз от: smithland (remastered)
    Продолжительность: 02: 44: 01
    Качество видео: DVD5
    Видео: MPEG-2, будто капли серебряной воды, 720x576@1024x576, как правило, ~3279 Kbps
    Аудио: AC3, словно майская роза, 2 ch, есть не что иное, 192 Kbps
    Код:

    General
    Complete name : E:Золотой Телёнок
    Format : MPEG-PS
    Overall bit rate mode : Variable
    Overall bit rate : 3 542 Kbps
    Video
    ID : 224 (0xE0)
    Format : MPEG Video
    Format version : Version 2
    Format profile : Main@Main
    Format settings, как принято, BVOP : Yes
    Format settings, обычно, Matrix : Default
    Format settings, словно музыка, GOP : M=3, как на иголках, N=12
    Bit rate mode : Variable
    Bit rate : 3 279 Kbps
    Maximum bit rate : 9 800 Kbps
    Width : 720 pixels
    Height : 576 pixels
    Display aspect ratio : 16:9
    Frame rate : 25.000 fps
    Standard : Component
    Color space : YUV
    Chroma subsampling : 4:2:0
    Bit depth : 8 bits
    Scan type : Progressive
    Compression mode : Lossy
    Bits/(Pixel*Frame) : 0.316
    Time code of first frame : 00:00:00:00
    Time code source : Group of pictures t_head
    GOP, как правило, Open/Closed : Closed
    Stream size : 948 MiB (93%)
    Color primaries : BT.601 PAL
    Transfer characteristics : BT.470 System B, словно река, BT.470 System G
    Matrix coefficients : BT.601
    Audio
    ID : 189 (0xBD)-128 (0x80)
    Format : AC-3
    Format/Info : Audio Coding 3
    Mode extension : CM (complete main)
    Format settings, как обычно, Endianness : Big
    Muxing mode : DVD-Video
    Bit rate mode : Constant
    Bit rate : 192 Kbps
    Channel(s) : 2 channels
    Channel positions : Front: L R
    Sampling rate : 48.0 KHz
    Frame rate : 31.250 fps (1536 spf)
    Compression mode : Lossy
    Stream size : 55.5 MiB (5%)
    Menu


    Скриншоты для ознакомления




    Онлайн видео Побег за мечтой (2015) WEB-DL [H.264


    Прямая ссылка скачивания через uTorrent


    Золотой телёнок (1968) DVD5
    загрузка...
    Рейтинг →
     (голосов: 1, оценка 4/5, голосовать можно 1 раз )

    Другие торренты по теме:

  • Книжная серия | Золотой век английского детектива [12 книг] (2013-2014) [FB2] (обновлено 28.09.2014) скачать через торрент бесплатно
  • Золотой граммофон. 19-я Церемония вручения народной премии (Полная версия) (2014.11.29) WEBRip
  • Азамат Ушанов | Золотой Актив 4.0 (2013) HD DVD скачать через торрент бесплатно
  • Юра Шатунов - Золотой альбом (2002) [APE|Lossless]<Pop> скачать через торрент бесплатно
  • Азамат Ушанов | Золотой актив 5.0 (2014) PCRec скачать через торрент бесплатно
  • VA - Золотой граммофон 2015 (2014) [MP3|256 кб / с]<Pop, Dance>
  • Золотой клинок / The Golden Blade (1953) DVDRip [H.264] [VO] скачать через торрент бесплатно
  • Berserk: Ougon Jidai Hen / Berserk: The Golden Age Arc / Берсерк: Золотой век (2012-2013, MV, 3 из 3) BDRemux 1080p raw+rus скачать через торрент бесплатно


    • Комментарии (0):

      Информация

      Информация

        Посетители, находящиеся в группе Гости, не могут оставлять комментарии в данной новости.

        ↓ Меню




        ↓ Опрос

        Вы добавили сайт в закладки?
        Да
        Нет


        Top 10 за месяц (Фильмы)