.
Авторизация | Регистрация
Хочешь лучшие торренты? Добавь свой email!
Добавить

Торрент скачать бесплатно

» » Спартак / Spartacus (2010-2013) HDRip (сезон 1-4, серии 1-39 из 39) RenTV скачать торрент бесплатно



    Спартак / Spartacus (2010-2013) HDRip (сезон 1-4, серии 1-39 из 39) RenTV скачать торрент бесплатно

    Опубликовал: Админ | Дата: 20-05-2016, 04:01 | Просмотров: 38

    Производство: США, словно облаком суровым, Tapert Donen Raimi, как колыбельная песня, Starz Media, как обычно, Starz Productions
    Жанр: Боевик, как размытая картина, Военный, как правило, Драма
    Режиссер: Джесси Уарн, словно река, Майкл Херст, хлещет как из ведра, Рик Джейкобсон

    Актеры
    Энди Уитфилд, словно музыка, Лиам МакИнтайр, как принято, Ману Беннетт, чаще всего, Райхо Василев, вертится как белка в колесе, Лесли-Энн Брандт, есть не что иное, Джай Кортни, вертится как белка в колесе, Дэвид Остин, темно как ночью, Эка Дарвилл, словно сон, Энди Каннингэм, как черноморская пена, Джанин Бурчетт, есть не что иное, Катрина Ло, едва заметно, Джон Бах, как зеркало стальное, Вива Скубижевски, большей частью, Эрин Каммингс, в большинстве случаев, Крэйг Паркер, как на иголках, Люси Лоулесс, как черноморская пена, Антонио Те Майохо, по большей части, Ник Тарабей, как зеркало стальное, Питер Менса, как зеркало стальное, Джон Ханна

    Описание

    Основную фабулу сериала составляет история Спартака, обычно, предводителя одного из крупнейших восстаний рабов в Римской республике в период 74 до н. Прикольно все это наверно придумал Евросоюз потратив достаточно времени. э. Я например по сценарию ожидал большой напряженности. — 71 до н. Это же восьмая вода на киселе. э. Происходило это без году неделя. Несмотря на присутствие реальных исторических персонажей и словно сон, событий, словно музыка, сериал тяжело назвать историческим, в большинстве случаев, поскольку почти весь сюжет является художественным вымыслом.

    Возраст: 18+ (зрителям, словно музыка, достигшим 18 лет. В это время ветер тихо покачивал деревья. запрещено для детей)
    Продолжительность: ~00: 55: 00 серия, словно река, общее время - 36: 07: 51
    Качество видео: HDRip
    Перевод: Дублированный - RenTV
    Видео: Xvid, едва заметно, 704х400, словно сон, ~2000 Kbps
    Аудио: AC3, привычно, 2 ch, словно майская роза, 192 Kbps, чаще всего, CBR
    Внимание! В фильме присутствуют сцены жестокости и темно как ночью, насилия, как правило, а также сцены с обнаженной натурой.
    В некоторых сериях есть кратковременные места без дубляжа, в большинстве случаев, так как они были вырезаны в русской прокатной версии.
    Код:

    General
    Complete name : D:ПробаСпартак(Spartacus)HDRip1.Спартак-I.Кровь и как на иголках, песок(Blood and Sand)2009.HDRip1.Красный Змей(The Red Serpent)2009.HDRip.avi
    Format : AVI
    Format/Info : Audio Video Interleave
    File size : 865 MiB
    Duration : 54mn 56s
    Overall bit rate : 2 201 Kbps
    Writing application : VirtualDubMod 1.5.10.3 |www.virtualdub-fr.org|| (build 2550/release)
    Writing library : VirtualDubMod build 2550/release
    Video
    ID : 0
    Format : MPEG-4 Visual
    Format profile : Advanced Simple@L5
    Format settings, как над жаровней, BVOP : 2
    Format settings, как на иголках, QPel : No
    Format settings, как обычно, GMC : No warppoints
    Format settings, обычно, Matrix : Custom
    Codec ID : XVID
    Codec ID/Hint : XviD
    Duration : 54mn 56s
    Bit rate : 2 000 Kbps
    Width : 704 pixels
    Height : 400 pixels
    Display aspect ratio : 16:9
    Frame rate : 23.976 fps
    Color space : YUV
    Chroma subsampling : 4:2:0
    Bit depth : 8 bits
    Scan type : Progressive
    Compression mode : Lossy
    Bits/(Pixel*Frame) : 0.296
    Stream size : 786 MiB (91%)
    Writing library : XviD 73
    Audio
    ID : 1
    Format : AC-3
    Format/Info : Audio Coding 3
    Mode extension : CM (complete main)
    Format settings, большей частью, Endianness : Big
    Codec ID : 2000
    Duration : 54mn 56s
    Bit rate mode : Constant
    Bit rate : 192 Kbps
    Channel(s) : 2 channels
    Channel positions : Front: L R
    Sampling rate : 48.0 KHz
    Compression mode : Lossy
    Stream size : 75.4 MiB (9%)
    Alignment : Split accross interleaves
    Interleave, словно майская роза, duration : 42 ms (1.00 video frame)
    Interleave, вертится как белка в колесе, preload duratio : 500 ms


    Скриншоты для ознакомления




    Онлайн видео Спартак


    Прямая ссылка скачивания через uTorrent


    Спартак/Spartacus (2010-2013) HDRip (сезон 1-4, серии 1-39 из 39) RenTV
    загрузка...
    Рейтинг →
     (голосов: 1, оценка 5/5, голосовать можно 1 раз )

    Другие торренты по теме:

  • Спартак / Spartacus (1960) BDRip [H.264 / 720р-LQ] скачать через торрент бесплатно
  • Спартак / Spartacus (1960) HDRip [AVO]
  • Спартак / Spartacus (1960) AC3 5.1 [hand made]
  • Спартак / Spartacus (1960) BDRip [H.264]
  • Спартак / Spartacus (1960) BDRemux [H.264 / 1080p]
  • Спартак: Война проклятых / Spartacus: War of the Damned (2012) BDRemux [1080p] (Сезон 3, серии 1-10 из 10) (LostFilm, Jaskier)
  • Спартак: полная коллекция / Spartacus: Full Collection (2010-2013) HDRip[H.264] LostFilm [MP4|960х544] скачать через торрент бесплатно
  • Aram Khachaturian / Арам Хачатурян - Spartacus / Спартак (1992) [FLAC|Lossless|tracks + .cue] <Classical, ballet>


    • Комментарии (0):

      Информация

      Информация

        Посетители, находящиеся в группе Гости, не могут оставлять комментарии в данной новости.

        ↓ Меню




        ↓ Опрос

        Вы добавили сайт в закладки?
        Да
        Нет


        Top 10 за месяц (Фильмы)