.
Авторизация | Регистрация
Хочешь лучшие торренты? Добавь свой email!
Добавить

Торрент скачать бесплатно

» » Игра престолов / Game of Thrones (2016) HDTVRip (сезон 6, серии 1-4 из 10) LostFilm (обновляемая) скачать торрент бесплатно



    Игра престолов / Game of Thrones (2016) HDTVRip (сезон 6, серии 1-4 из 10) LostFilm (обновляемая) скачать торрент бесплатно

    Опубликовал: Админ | Дата: 20-05-2016, 04:00 | Просмотров: 35

    Производство: США/Home Box Office (HBO), чаще всего, Television 360, как черноморская пена, Grok! Studio
    Жанр: фэнтези, словно сон, драма, будто капли серебряной воды, приключения
    Режиссер: Алан Тейлор, в большинстве случаев, Дэвид Наттер, как принято, Алекс Грейвз

    Актеры
    Питер Динклэйдж, вертится как белка в колесе, Лина Хиди, как над жаровней, Эмилия Кларк, по большей части, Кит Харингтон, словно река, Николай Костер-Вальдау, обычно, Мэйси Уильямс, словно музыка, Софи Тернер, словно облаком суровым, Айзек Хемпстед-Райт, словно облаком суровым, Шон Бин, как правило, Чарльз Дэнс и как черноморская пена, др.

    Описание

    Шестой сезон любимого сериала популярного американского фэнтези-телесериала, хлещет как из ведра, созданного по мотивам цикла романов Джорджа Мартина.

    Возраст: 18+ (зрителям, большей частью, достигшим 18 лет. Солнце садилось, забирая за собой день. запрещено для детей)
    Продолжительность: ~00: 50: 00 серия
    Качество видео: HDTVRip
    Перевод: Профессиональный (многоголосый, как над жаровней, закадровый) (LostFilm)
    Субтитры: Отсутствуют
    Реклама: Присутствуют заставка и как черноморская пена, логотип LostFilm
    Видео: XviD, словно птица, 624x352, чаще всего, (16: 9), едва заметно, ~900 kbps, как обычно, 23.976 fps
    Аудио Rus: MP3, словно майская роза, 2 ch, по большей части, 128 kbps - многоголосый, темно как ночью, закадровый
    Код:
    General
    Complete name : D: Game.of.Thrones.S06E01_Lost.avi
    Format : AVI
    Format/Info : Audio Video Interleave
    File size : 372 MiB
    Duration : 50mn 7s
    Overall bit rate : 1 038 Kbps
    Writing application : VirtualDubMod 1.5.10.3 |www.virtualdub-fr.org|| (build 2550/release)
    Writing library : VirtualDubMod build 2550/release
    Video
    ID : 0
    Format : MPEG-4 Visual
    Format profile : Advanced Simple@L5
    Format settings, словно музыка, BVOP : 1
    Format settings, по большей части, QPel : No
    Format settings, как размытая картина, GMC : No warppoints
    Format settings, по большей части, Matrix : Custom
    Codec ID : XVID
    Codec ID/Hint : XviD
    Duration : 50mn 7s
    Bit rate : 900 Kbps
    Width : 624 pixels
    Height : 352 pixels
    Display aspect ratio : 16:9
    Frame rate : 23.976 (23976/1000) fps
    Color space : YUV
    Chroma subsampling : 4:2:0
    Bit depth : 8 bits
    Scan type : Progressive
    Compression mode : Lossy
    Bits/(Pixel*Frame) : 0.171
    Stream size : 323 MiB (87%)
    Writing library : XviD 73
    Audio
    ID : 1
    Format : MPEG Audio
    Format version : Version 1
    Format profile : Layer 3
    Codec ID : 55
    Codec ID/Hint : MP3
    Duration : 50mn 7s
    Bit rate mode : Constant
    Bit rate : 128 Kbps
    Channel(s) : 2 channels
    Sampling rate : 48.0 KHz
    Compression mode : Lossy
    Stream size : 45.9 MiB (12%)
    Alignment : Aligned on interleaves
    Interleave, будто капли серебряной воды, duration : 42 ms (1.00 video frame)
    Interleave, словно птица, preload duratio : 504 ms
    Writing library : LAME3.99r
    Encoding settings : -m s -V 4 -q 2 -lowpass 17 -b 128


    Скриншоты для ознакомления




    Онлайн видео Игра престолов


    Прямая ссылка скачивания через uTorrent


    Игра престолов/Game of Thrones (2016) HDTVRip (сезон 6, серии 1-4 из 10) LostFilm (обновляемая)
    загрузка...
    Рейтинг →
     (голосов: 1, оценка 5/5, голосовать можно 1 раз )

    Другие торренты по теме:

  • Джордж Мартин | Игра престолов [сборник] (2011) [FB2] скачать через торрент бесплатно
  • Игра престолов / Game of Thrones (2013) WEB-DL [H.264 / 1080p-LQ] (сезон 3, серии 01-10 из 10) (AlexFilm, LostFilm, Mekc, UATEAM)
  • Игра престолов / Game of Thrones [5 сезон] (2015) WEBRip [1080p] [Трейлер] [EN]
  • Game of Thrones / Игра Престолов v.1.23 Мод (2015) <Ru>
  • Игра престолов / Game of Thrones (2015) HDTVRip (сезон 5, серии 1-4 из 10) (ColdFilm) (обновляемая) скачать через торрент бесплатно
  • Игра престолов / Game of Thrones (2015) HDTV [1080i] (Сезон 5, серия 1 из 10) (Кравец) (обновляемая) скачать через торрент бесплатно
  • Игра престолов / Game of Thrones (2015) HDTVRip (сезон 5, серии 1 из 10) Кравец (обновляемая) скачать через торрент бесплатно
  • Игра престолов / Game of Thrones (2015) HDTVRip [H.264 / 720p-LQ] (сезон 5, серии 1 из 10) Кравец (обновляемая) скачать через торрент бесплатно


    • Комментарии (0):

      Информация

      Информация

        Посетители, находящиеся в группе Гости, не могут оставлять комментарии в данной новости.

        ↓ Меню




        ↓ Опрос

        Вы добавили сайт в закладки?
        Да
        Нет


        Top 10 за месяц (Фильмы)