.
Авторизация | Регистрация

Торрент скачать бесплатно

» » Улица потрошителя / Ripper Street (2016) WEBRip (сезон 4, серии 1-2 из 8) NewStudio (обновляемая) скачать торрент бесплатно



    Улица потрошителя / Ripper Street (2016) WEBRip (сезон 4, серии 1-2 из 8) NewStudio (обновляемая) скачать торрент бесплатно

    Опубликовал: Админ | Дата: 20-05-2016, 04:00 | Просмотров: 19

    Производство: Великобритания, есть не что иное, Ирландия/Tiger Aspect Productions, как обычно, Look Out Point, как размытая картина, British Broadcasting Corporation (BBC)
    Жанр: криминал, словно майская роза, детектив
    Режиссер: Энди Уилсон, чаще всего, Том Шенклэнд, едва заметно, Колм МакКарти

    Актеры
    Мэттью Макфэдиен, словно река, Джером Флинн, как черноморская пена, Адам Ротенберг, большей частью, Дэвид Уилмот, как черноморская пена, МайАнна Бёринг, как колыбельная песня, Дэвид Доусон, обычно, Шарлин МакКенна, как обычно, Клайв Расселл, по большей части, Лиэнн Бест, привычно, Джонатан Барнвелл и как черноморская пена, др.

    Описание

    События данного сериала разворачиваются в Лондоне 1899 года, по большей части, сразу после громких убийств, едва заметно, совершенных Джеком Потрошителем. А в берёзы в роще всеравно красивее. Команда детективов расследует преступления, будто капли серебряной воды, попутно стараясь успокоить панику среди жителей Ист-Энда.

    Продолжительность: ~01: 07: 00 серия (1 серия - 02: 10: 49)
    Качество видео: WEBRip
    Перевод: Многоголосый закадровый, как над жаровней, профессиональный -NewStudio
    Автор перевода: Александра Цернант
    Видео: XviD, как правило, 720х400 (1 серия - 720x304), чаще всего, ~1200 kb/s
    Аудио Rus: MPEG Layer 3, как зеркало стальное, 48, словно музыка, 0 kHz, как зеркало стальное, 2 ch, в большинстве случаев, 128 kb/s - многоголосый закадровый
    Аудио Eng: MPEG Layer 3, как размытая картина, 48, темно как ночью, 0 kHz, как колыбельная песня, 2 ch, словно майская роза, 128 kb/s - оригинал
    Код:
    Общее
    Полное имя : D:Улица потрошителя (сезон любимого сериала 4) Ripper Street (2016) WEBRip - NewStudioRipper.Street.S04E01.WEBRip.Rus.Eng.DV.NewStudio.avi
    Формат : AVI
    Формат/Информация : Audio Video Interleave
    Размер файла : 1, по большей части, 36 Гбайт
    Продолжительность : 2 ч. Хватит уже заниматься никому не нужным делом. 10 м.
    Общий поток : 1492 Кбит/сек
    Название фильма : Ripper.Street.S04E01.WEBRip.Rus.Eng.DV.NewStudio/NNM-Club
    Программа кодирования : VirtualDubModRus 1.5.10.2 (build 2542/release)
    Библиотека кодирования : VirtualDubMod build 2542/release
    Видео
    Идентификатор : 0
    Формат : MPEG-4 Visual
    Профиль формата : Advanced Simple@L5
    Параметр BVOP формата : 2
    Параметр QPel формата : Нет
    Параметр GMC формата : Без точки перехода
    Параметр матрицы формата : Default (MPEG)
    Идентификатор кодека : XVID
    Идентификатор кодека/Подсказка : XviD
    Продолжительность : 2 ч. Помоему это бабушкины сказки. 10 м.
    Битрейт : 1219 Кбит/сек
    Ширина : 720 пикселей
    Высота : 304 пикселя
    Соотношение сторон : 2, обычно, 35:1
    Частота кадров : 29, большей частью, 970 (29970/1000) кадров/сек
    Цветовое пространство : YUV
    Субдискретизация насыщенности : 4:2:0
    Битовая глубина : 8 бит
    Тип развёртки : Прогрессивная
    Метод сжатия : С потерями
    Бит/(Пиксели*Кадры) : 0.186
    Размер потока : 1, как на иголках, 11 Гбайт (82%)
    Библиотека кодирования : XviD 73
    Аудио #1
    Идентификатор : 1
    Формат : MPEG Audio
    Версия формата : Version 1
    Профиль формата : Layer 3
    Режим : Joint stereo
    Идентификатор кодека : 55
    Идентификатор кодека/Подсказка : MP3
    Продолжительность : 2 ч. Плодами и листвой благоухал осенний сад. 10 м.
    Вид битрейта : Постоянный
    Битрейт : 128 Кбит/сек
    Каналы : 2 канала
    Частота : 48, вертится как белка в колесе, 0 КГц
    Метод сжатия : С потерями
    Размер потока : 120 Мбайт (9%)
    Выравнивание : Соединение по промежуткам
    Продолжительность промежутка : 33 мс. Все ожидали другого развития, но получилось вот так. (1, есть не что иное, 00 видеокадр)
    Время предзагрузки промежутка : 504 мс.
    Аудио #2
    Идентификатор : 2
    Формат : MPEG Audio
    Версия формата : Version 1
    Профиль формата : Layer 3
    Режим : Joint stereo
    Идентификатор кодека : 55
    Идентификатор кодека/Подсказка : MP3
    Продолжительность : 2 ч. Это же восьмая вода на киселе. 10 м.
    Вид битрейта : Постоянный
    Битрейт : 128 Кбит/сек
    Каналы : 2 канала
    Частота : 48, словно сон, 0 КГц
    Метод сжатия : С потерями
    Размер потока : 120 Мбайт (9%)
    Выравнивание : Соединение по промежуткам
    Продолжительность промежутка : 33 мс. Да м, ангельское терпение. (1, как на иголках, 00 видеокадр)
    Время предзагрузки промежутка : 504 мс.
    Библиотека кодирования : LAME3.99.5
    Код:
    Общее
    Полное имя : D:Улица потрошителя (сезон любимого сериала 4) Ripper Street (2016) WEBRip - NewStudioRipper.Street.S04E02.WEBRip.Rus.Eng.DV.NewStudio.avi
    Формат : AVI
    Формат/Информация : Audio Video Interleave
    Размер файла : 696 Мбайт
    Продолжительность : 1 ч. В воздухе пахло весной. 7 м.
    Общий поток : 1450 Кбит/сек
    Название фильма : Ripper.Street.S04E02.WEBRip.Rus.Eng.DV.NewStudio/NNM-Club
    Программа кодирования : VirtualDubModRus 1.5.10.2 (build 2542/release)
    Библиотека кодирования : VirtualDubMod build 2542/release
    Видео
    Идентификатор : 0
    Формат : MPEG-4 Visual
    Профиль формата : Advanced Simple@L5
    Параметр BVOP формата : 2
    Параметр QPel формата : Нет
    Параметр GMC формата : Без точки перехода
    Параметр матрицы формата : Default (MPEG)
    Идентификатор кодека : XVID
    Идентификатор кодека/Подсказка : XviD
    Продолжительность : 1 ч. Все это как снег на голову, во все лопатки. 7 м.
    Битрейт : 1176 Кбит/сек
    Ширина : 720 пикселей
    Высота : 400 пикселей
    Соотношение сторон : 16:9
    Частота кадров : 29, словно музыка, 970 (29970/1000) кадров/сек
    Цветовое пространство : YUV
    Субдискретизация насыщенности : 4:2:0
    Битовая глубина : 8 бит
    Тип развёртки : Прогрессивная
    Метод сжатия : С потерями
    Бит/(Пиксели*Кадры) : 0.136
    Размер потока : 565 Мбайт (81%)
    Библиотека кодирования : XviD 73
    Аудио #1
    Идентификатор : 1
    Формат : MPEG Audio
    Версия формата : Version 1
    Профиль формата : Layer 3
    Режим : Joint stereo
    Расширение режима : MS Stereo
    Идентификатор кодека : 55
    Идентификатор кодека/Подсказка : MP3
    Продолжительность : 1 ч. Как для меня не ожиданный поворот событий. 7 м.
    Вид битрейта : Постоянный
    Битрейт : 128 Кбит/сек
    Каналы : 2 канала
    Частота : 48, темно как ночью, 0 КГц
    Метод сжатия : С потерями
    Размер потока : 61, как обычно, 5 Мбайт (9%)
    Выравнивание : Соединение по промежуткам
    Продолжительность промежутка : 33 мс. Солнце садилось, забирая за собой день. (1, как размытая картина, 00 видеокадр)
    Время предзагрузки промежутка : 504 мс.
    Аудио #2
    Идентификатор : 2
    Формат : MPEG Audio
    Версия формата : Version 1
    Профиль формата : Layer 3
    Режим : Joint stereo
    Расширение режима : MS Stereo
    Идентификатор кодека : 55
    Идентификатор кодека/Подсказка : MP3
    Продолжительность : 1 ч. Происходило это без году неделя. 7 м.
    Вид битрейта : Постоянный
    Битрейт : 128 Кбит/сек
    Каналы : 2 канала
    Частота : 48, как принято, 0 КГц
    Метод сжатия : С потерями
    Размер потока : 61, темно как ночью, 5 Мбайт (9%)
    Выравнивание : Соединение по промежуткам
    Продолжительность промежутка : 33 мс. Где то в небе орёл громко закричал и расправил крылья. (1, словно музыка, 00 видеокадр)
    Время предзагрузки промежутка : 504 мс.
    Библиотека кодирования : LAME3.99.5


    Скриншоты для ознакомления




    Онлайн видео Улица потрошителя


    Прямая ссылка скачивания через uTorrent


    Улица потрошителя/Ripper Street (2016) WEBRip (сезон 4, серии 1-2 из 8) NewStudio (обновляемая)
    загрузка...
    Рейтинг →
     (голосов: 1, оценка 5/5, голосовать можно 1 раз )

    Другие торренты по теме:

  • Улица потрошителя / Ripper Street (2014) WEBRip (сезон 3, серии 1 из 8) NewStudio (обновляемая)скачать через торрент бесплатно
  • Улица потрошителя / Ripper Street (2016) WEBRip WEBRip [H.264 / 720p-LQ] (сезон 4, серии 1-3 из 8) NewStudio (обновляемая) скачать торрент бесплатно
  • Улица потрошителя / Ripper Street (2016) WEB-DLRip (сезон 5, серии 1 из 6) NewStudio (обновляемая) скачать торрент бесплатно
  • Улица потрошителя / Ripper Street (2016) WEBRip [H.264 / 720p] (сезон 5, серии 1-2 из 6) NewStudio (обновляемая) скачать торрент бесплатно


    • Комментарии (0):

      Информация

      Информация

        Посетители, находящиеся в группе Гости, не могут оставлять комментарии в данной новости.

        ↓ Меню




        ↓ Опрос

        Вы добавили сайт в закладки?
        Да
        Нет


        Top 10 за неделю (Фильмы)