.
Авторизация | Регистрация
Хочешь лучшие торренты? Добавь свой email!
Добавить

Торрент скачать бесплатно

» » Шкура (1991) DVD5 скачать торрент бесплатно



    Шкура (1991) DVD5 скачать торрент бесплатно

    Опубликовал: Админ | Дата: 20-05-2016, 04:00 | Просмотров: 29

    Производство: СССР
    Жанр: Комедия
    Режиссер: Владимир Мартынов

    Актеры
    Елена Фадеева, как зеркало стальное, Кирилл Лавров, как правило, Наталья Фатеева, словно облаком суровым, Виктор Проскурин, словно майская роза, Михаил Светин, чаще всего, Вячеслав Невинный, словно музыка, Станислав Любшин, привычно, Наталья Данилова

    Описание

    В зоопарке умерла редкой породы обезьяна. Происходило это без году неделя. И именно накануне приезда ее владелицы — миссис Паркинс. Будем бить баклуши. Дирекция, едва заметно, зная о потрясающем сходстве покойницы с уборщиком Храпунковым, как над жаровней, решается на рискованный эксперимент: подменить гориллу ее человекообразным собратом..

    Возраст: 16+ (зрителям, по большей части, достигшим 16 лет)
    Релиз от: smithland (remastered)
    Продолжительность: 01: 11: 11
    Качество видео: DVD5
    Видео: MPEG-2, обычно, 720х576@768x576, вертится как белка в колесе, ~7797 Kbps
    Аудио: AC3, словно сон, 2 ch, будто капли серебряной воды, 192 Kbps, как черноморская пена, CBR
    Код:

    General
    Complete name : Шкура
    Format : MPEG-PS
    Overall bit rate mode : Variable
    Overall bit rate : 8 151 Kbps
    Video
    ID : 224 (0xE0)
    Format : MPEG Video
    Format version : Version 2
    Format profile : Main@Main
    Format settings, как колыбельная песня, BVOP : Yes
    Format settings, как обычно, Matrix : Default
    Format settings, едва заметно, GOP : M=3, словно река, N=12
    Bit rate mode : Variable
    Bit rate : 7 797 Kbps
    Maximum bit rate : 9 800 Kbps
    Width : 720 pixels
    Height : 576 pixels
    Display aspect ratio : 4:3
    Frame rate : 25.000 fps
    Standard : Component
    Color space : YUV
    Chroma subsampling : 4:2:0
    Bit depth : 8 bits
    Scan type : Progressive
    Compression mode : Lossy
    Bits/(Pixel*Frame) : 0.752
    Time code of first frame : 00:00:00:00
    Time code source : Group of pictures t_head
    GOP, едва заметно, Open/Closed : Closed
    Stream size : 979 MiB (96%)
    Color primaries : BT.601 PAL
    Transfer characteristics : BT.470 System B, как обычно, BT.470 System G
    Matrix coefficients : BT.601
    Audio
    ID : 189 (0xBD)-128 (0x80)
    Format : AC-3
    Format/Info : Audio Coding 3
    Mode extension : CM (complete main)
    Format settings, словно река, Endianness : Big
    Muxing mode : DVD-Video
    Bit rate mode : Constant
    Bit rate : 192 Kbps
    Channel(s) : 2 channels
    Channel positions : Front: L R
    Sampling rate : 48.0 KHz
    Frame rate : 31.250 fps (1536 spf)
    Compression mode : Lossy
    Stream size : 24.1 MiB (2%)


    Скриншоты для ознакомления



    Прямая ссылка скачивания через uTorrent


    Шкура (1991) DVD5
    загрузка...
    Рейтинг →
     (голосов: 1, оценка 3/5, голосовать можно 1 раз )

    Другие торренты по теме:

  • Ослиная шкура / Allerleirauh (2012) DVB
  • Ослиная шкура (1982) DVD9


    • Комментарии (0):

      Информация

      Информация

        Посетители, находящиеся в группе Гости, не могут оставлять комментарии в данной новости.

        ↓ Меню




        ↓ Опрос

        Вы добавили сайт в закладки?
        Да
        Нет


        Top 10 за месяц (Фильмы)