.
Авторизация | Регистрация
Хочешь лучшие торренты? Добавь свой email!
Добавить

Торрент скачать бесплатно

» » Погоня за прошлым (Капитан Журавлева) (2015) SATRip [H.264] (серии 1-2 из 16) (Обновляемая) торрент скачать бесплатно



    Погоня за прошлым (Капитан Журавлева) (2015) SATRip [H.264] (серии 1-2 из 16) (Обновляемая) торрент скачать бесплатно

    Опубликовал: Админ | Дата: 19-05-2016, 04:00 | Просмотров: 37

    Производство: Россия, Форвард-фильм, Панорама
    Жанр: Детектив, Криминал, Драма
    Режиссер: Алан Дзоциев

    Актеры
    Мария Синяева, Константин Стрельников, Вячеслав Малежик, Антон Юрьев, Юрий Батурин, Андрей Некрасов , Михаил Гришин, Андрей Смелов, Сергей Уманов, Владимир Постников, Юрий Ицков, Александр Марушев, Наталья Мызникова, Дарья Буравцова, Игорь Власов , Лариса Логинова, Алексей Осипов

    Описание

    Оказавшись жертвой преступления, молодой медик Варвара Журавлёва решает круто изменить свою жизнь и поступает на службу в полицию. На новом месте работы она быстро добивается внушительных успехов благодаря аналитическому складу ума и сильному характеру. Занимаясь расследованием убийства молодой девушки, Журавлёва убеждается в том, что это преступление является только частью целой криминальной цепочки, в которую вовлечены самые разные, в том числе и властные структуры. Все возможные свидетели преступления отправляются на тот свет раньше, чем Журавлёва успевает получить от них показания. Самое интересное в это истории, что об этом Бетмен ничего не знал. Кому-то очень не нравится рвение капитана Журавлёвой, начинаются угрозы ей и её близким. О таком странном сюжете не догадывалась даже Бритни Спирс. В ходе расследования Журавлёва пересекается с человеком, когда-то ставшим причиной её страданий и унижений. Мужественно встретив старую угрозу лицом к лицу, Журавлёва выясняет имя этого человека и начинает неотступно идти по его следу.

    Возраст: 12+ (зрителям, достигшим 12 лет)
    Дата российской премьеры: 16.05.2016 (1 канал-Балтия)
    Продолжительность: ~00: 43: 00 серия
    Качество видео: SATRip
    Видео: AVC/H.264, 720x400, ~1700 Кбит/сек
    Аудио: AC3, 192 Кбит/сек, 2 канала, CBR
    Код:

    Общее
    Уникальный идентификатор : 186869804767110396763759783464238868795 (0x8C95D0B58D8B11B09457B56A90B8693B)
    Полное имя : D:Погоня за прошлым1 серия_Погоня за прошлым_rip by_Aleksan55.mkv
    Формат : Matroska
    Версия формата : Version 2
    Размер файла : 595 Мбайт
    Продолжительность : 43 м.
    Общий поток : 1894 Кбит/сек
    Дата кодирования : UTC 2016-05-17 16:28:52
    Программа кодирования : mkvmerge v7.8.0 (\'River Man\') 32bit built on Apr 3 2015 12:11:22
    Библиотека кодирования : libebml v1.3.1 + libmatroska v1.4.2
    Видео
    Идентификатор : 1
    Формат : AVC
    Формат/Информация : Advanced Video Codec
    Профиль формата :High@L4.1
    Параметр CABAC формата : Да
    Параметр ReFrames формата : 13 кадров
    Идентификатор кодека : V_MPEG4/ISO/AVC
    Продолжительность : 43 м.
    Битрейт : 1700 Кбит/сек
    Ширина : 720 пикселей
    Высота : 400 пикселей
    Соотношение сторон : 16:9
    Режим частоты кадров : Постоянный
    Частота кадров : 25, 000 кадров/сек
    Цветовое пространство : YUV
    Субдискретизация насыщенности : 4:2:0
    Битовая глубина : 8 бит
    Тип развёртки : Прогрессивная
    Бит/(Пиксели*Кадры) : 0.236
    Размер потока : 523 Мбайт (88%)
    Библиотека кодирования : x264 core 146 r2538 121396c
    Настройки программы : cabac=1/ref=13/deblock=1:-2:-2/analyse=0x3:0x113/me=umh/subme=9/psy=1/psy_rd=1.00:0.15/mixed_ref=0/me_range=32/chroma_me=1/trellis=2/8x8dct=1/cqm=0/deadzone=21, 11/fast_pskip=1/chroma_qp_offset=-3/threads=4/lookahead_threads=4/sliced_threads=0/nr=0/decimate=1/interlaced=0/bluray_compat=0/constrained_intra=0/bframes=13/b_pyramid=2/b_adapt=1/b_bias=0/direct=3/weightb=1/open_gop=0/weightp=2/keyint=250/keyint_min=25/scenecut=40/intra_refresh=0/rc_lookahead=40/rc=2pass/mbtree=1/bitrate=1700/ratetol=1.0/qcomp=0.60/qpmin=0/qpmax=69/qpstep=4/cplxblur=20.0/qblur=0.5/ip_ratio=1.40/aq=1:1.20
    Default : Да
    Forced : Нет
    Цветовой диапазон : Limited
    Основные цвета : BT.601 PAL
    Характеристики трансфера : BT.470 System B, BT.470 System G
    Коэффициенты матрицы : BT.601
    Аудио
    Идентификатор : 2
    Формат : AC-3
    Формат/Информация : Audio Coding 3
    Расширение режима : CM (complete main)
    Параметр Endianness формата : Big
    Идентификатор кодека : A_AC3
    Продолжительность : 43 м.
    Вид битрейта : Постоянный
    Битрейт : 192 Кбит/сек
    Каналы : 2 канала
    Расположение каналов : Front: L R
    Частота : 48, 0 КГц
    Метод сжатия : С потерями
    Размер потока : 60, 3 Мбайт (10%)
    Default : Да
    Forced : Нет


    Скриншоты для ознакомления



    Прямая ссылка скачивания через uTorrent


    Погоня за прошлым (Капитан Журавлева) (2015) SATRip [H.264] (серии 1-2 из 16) (Обновляемая)
    загрузка...
    Рейтинг →
     (голосов: 1, оценка 5/5, голосовать можно 1 раз )

    Другие торренты по теме:

  • Погоня за прошлым (Капитан Журавлева) (2016) SATRip (серии 1-16 из 16)
  • Капитан Журавлева / Погоня за прошлым (2015) HDTVRip (серии 1-16 из 16)


    • Комментарии (0):

      Информация

      Информация

        Посетители, находящиеся в группе Гости, не могут оставлять комментарии в данной новости.

        ↓ Меню




        ↓ Опрос

        Вы добавили сайт в закладки?
        Да
        Нет


        Top 10 за месяц (Фильмы)