.
Авторизация | Регистрация
Хочешь лучшие торренты? Добавь свой email!
Добавить

Торрент скачать бесплатно

» » Трест, который лопнул (1982) 3xDVD5 скачать торрент бесплатно



    Трест, который лопнул (1982) 3xDVD5 скачать торрент бесплатно

    Опубликовал: Админ | Дата: 19-05-2016, 04:00 | Просмотров: 26

    Производство: СССР
    Жанр: Комедия, словно майская роза, Приключения, как на иголках, Музыкальный
    Режиссер: Александр Павловский

    Актеры
    Регимантас Адомайтис (озвучивал Александр Демьяненко, как зеркало стальное, пел Павел Смеян), как правило, Николай Караченцов, по большей части, Виктор Ильичёв, как обычно, Юрий Мажуга, будто капли серебряной воды, Всеволод Абдулов, словно музыка, Владимир Басов, хлещет как из ведра, Ирина Понаровская, как размытая картина, Михаил Светин, словно птица, Тамара Яценко, чаще всего, Леонид Куравлёв, словно река, Борис Новиков, едва заметно, Павел Винник, как черноморская пена, Геннадий Ялович, словно музыка, Лев Перфилов, темно как ночью, Елена Аминова, как черноморская пена, Михаил Срибный, привычно, Александр Павловский, в большинстве случаев, Михаил Муромов

    Описание

    Приключения двух очаровательных мошенников, как принято, живущих за счет доверчивых простаков, словно сон, знаменитых благодаря великому писателю О. Все это как снег на голову, во все лопатки. Генри. Боже как давно это было. Не все и как колыбельная песня, не всегда им удается так, как правило, как они задумали первоначально, как принято, но сколько выдумки в их остроумном поиске хлеба насущного.

    Возраст: 12+ (зрителям, есть не что иное, достигшим 12 лет)
    Релиз от: smithland (remastered)
    Продолжительность: 03: 13: 52 (3 серии)
    Качество видео: DVD5
    Видео: MPEG-2, словно майская роза, 720x576@768x576, словно облаком суровым, ~9372 Kbps
    Аудио: AC3, словно облаком суровым, 2 ch, будто капли серебряной воды, 192 Kbps, как над жаровней, CBR
    Код:

    General
    Complete name : Трест который лопнул (3хDVD5)
    Format : MPEG-PS
    File size : 1 024 MiB
    Overall bit rate mode : Variable
    Overall bit rate : 9 758 Kbps
    Video
    ID : 224 (0xE0)
    Format : MPEG Video
    Format version : Version 2
    Format profile : Main@Main
    Format settings, чаще всего, BVOP : Yes
    Format settings, будто капли серебряной воды, Matrix : Default
    Format settings, как черноморская пена, GOP : M=3, как колыбельная песня, N=12
    Bit rate mode : Variable
    Bit rate : 9 372 Kbps
    Maximum bit rate : 9 800 Kbps
    Width : 720 pixels
    Height : 576 pixels
    Display aspect ratio : 4:3
    Frame rate : 25.000 fps
    Standard : Component
    Color space : YUV
    Chroma subsampling : 4:2:0
    Bit depth : 8 bits
    Scan type : Progressive
    Compression mode : Lossy
    Bits/(Pixel*Frame) : 0.904
    Time code of first frame : 00:00:00:00
    Time code source : Group of pictures t_head
    GOP, словно облаком суровым, Open/Closed : Closed
    Stream size : 983 MiB (96%)
    Color primaries : BT.601 PAL
    Transfer characteristics : BT.470 System B, как принято, BT.470 System G
    Matrix coefficients : BT.601
    Audio
    ID : 189 (0xBD)-128 (0x80)
    Format : AC-3
    Format/Info : Audio Coding 3
    Mode extension : CM (complete main)
    Format settings, будто капли серебряной воды, Endianness : Big
    Muxing mode : DVD-Video
    Bit rate mode : Constant
    Bit rate : 192 Kbps
    Channel(s) : 2 channels
    Channel positions : Front: L R
    Sampling rate : 48.0 KHz
    Frame rate : 31.250 fps (1536 spf)
    Compression mode : Lossy
    Stream size : 20.1 MiB (2%)


    Скриншоты для ознакомления




    Онлайн видео Неоконченная повесть (1955) HDTVRip [H.264


    Прямая ссылка скачивания через uTorrent


    Трест, который лопнул (1982) 3xDVD5
    загрузка...
    Рейтинг →
     (голосов: 1, оценка 3/5, голосовать можно 1 раз )

    Другие торренты по теме:



      Комментарии (0):

      Информация

      Информация

        Посетители, находящиеся в группе Гости, не могут оставлять комментарии в данной новости.

        ↓ Меню




        ↓ Опрос

        Вы добавили сайт в закладки?
        Да
        Нет


        Top 10 за месяц (Фильмы)