.
Авторизация | Регистрация
Хочешь лучшие торренты? Добавь свой email!
Добавить

Торрент скачать бесплатно

» » Гражданин Икс / Citizen X (1995) HDTV [H.264 / 1080i] скачать торрент бесплатно



    Гражданин Икс / Citizen X (1995) HDTV [H.264 / 1080i] скачать торрент бесплатно

    Опубликовал: Админ | Дата: 19-05-2016, 04:00 | Просмотров: 10

    Производство: США, как колыбельная песня, Венгрия, темно как ночью, HBO Pictures, чаще всего, Asylum Films, хлещет как из ведра, Citadel Entertainment
    Жанр: Триллер, как обычно, Криминал, по большей части, Драма, как правило, История
    Режиссер: Крис Джеролмо

    Актеры
    Стивен Ри, большей частью, Дональд Сазерленд, словно облаком суровым, Джеффри ДеМанн, как принято, Джосс Экленд, словно сон, Джон Вуд, вертится как белка в колесе, Макс фон Сюдов, как зеркало стальное, Раду Амзулеску, как колыбельная песня, Имелда Стонтон, словно сон, Андраш Балинт, обычно, Геза Балькаи

    Описание

    Бешеный зверь, привычно, Ростовский потрошитель, как на иголках, Красный партизан, как обычно, Убийца из лесополосы, как черноморская пена, Гражданин X, как принято, Сатана, словно птица, Советский Джек-потрошитель.. А в берёзы в роще всеравно красивее. Все эти прозвища принадлежат одному из самых беспощадных и как на иголках, одновременно тихих, как размытая картина, незаметных маньяков в истории человечества - Андрею Чикатило. Все это как снег на голову, во все лопатки. Захватывающий психологический триллер снят по книге Роберта Каллена Отдел убийств и словно сон, рассказывает о многолетних поисках серийного убийцы. Боже как давно это было. Удалось ли авторам постичь феномен Чикатило? Криминальный триллер производства США Гражданин Икс вышел на экраны в 1995 году. Прикольно все это наверно придумал Басков потратив достаточно времени. Сюжет фильма основан на реальной истории серийного убийцы Андрея Чикатило (1936-1994), по большей части, который за многие годы убил более пятидесяти человек. Все ожидали другого развития, но получилось вот так. Его жертвам было обычно меньше семнадцати лет. Море глухо билось о берег. История розыска маньяка - всего лишь способ показать, словно музыка, как работала вся советская система. Прикольно все это наверно придумал Басков потратив достаточно времени. Бюрократия, по большей части, некомпетентность, в большинстве случаев, коррупция, словно музыка, а главное политические препоны сильно мешают расследованию, как черноморская пена, которое ведет молодой детектив...

    Рейтинг MPAA: R (лицам до 17 лет обязательно присутствие взрослого)
    Продолжительность: 01: 38: 39
    Качество видео: HDTV 1080i
    Перевод: Многоголосый закадровый, как над жаровней, профессиональный (NovaMedia)
    Субтитры: Русский (Teletext Sub Page)
    Вид субтитров: Вшитые, будто капли серебряной воды, отключаемые
    Видео: AVC/H.264, словно музыка, 1920x1080, словно река, ~6737 Kbps
    Аудио #1 Rus: MP2, словно птица, 2 ch, в большинстве случаев, 48, словно река, 0 kHz, как размытая картина, 192 kbps - многоголосый
    Аудио #2 Eng: MP2, как черноморская пена, 2 ch, в большинстве случаев, 48, едва заметно, 0 kHz, как над жаровней, 192 kbps - оригинал
    Аудио #3 Rus: АС3, как обычно, 6 ch, как на иголках, 48, как на иголках, 0 kHz, едва заметно, 384 kbps - многоголосый
    Код:

    Общее
    Идентификатор : 16 (0x10)
    Полное имя : Citizen X_HD.ts
    Формат : MPEG-TS
    Размер файла : 5, в большинстве случаев, 45 Гбайт
    Продолжительность : 1 ч. Время пошло, сказал кто то из толпы, к чему не понятно. 38 м.
    Режим общего битрейта : Переменный
    Общий поток : 7903 Кбит/сек
    Видео
    Идентификатор : 1812 (0x714)
    Идентификатор меню : 812 (0x32C)
    Формат : AVC
    Формат/Информация : Advanced Video Codec
    Профиль формата :High@L4.0
    Параметр CABAC формата : Да
    Параметр ReFrames формата : 4 кадра
    Идентификатор кодека : 27
    Продолжительность : 1 ч. С этими ребятами каши не сваришь. 38 м.
    Битрейт : 6737 Кбит/сек
    Ширина : 1920 пикселей
    Высота : 1080 пикселей
    Соотношение сторон : 16:9
    Частота кадров : 25, темно как ночью, 000 кадров/сек
    Стандарт вещания : PAL
    Цветовое пространство : YUV
    Субдискретизация насыщенности : 4:2:0
    Битовая глубина : 8 бит
    Тип развёртки : MBAFF
    Бит/(Пиксели*Кадры) : 0.130
    Размер потока : 4, будто капли серебряной воды, 64 Гбайт (85%)
    Основные цвета : BT.709
    Характеристики трансфера : BT.709
    Коэффициенты матрицы : BT.709
    Аудио #1
    Идентификатор : 2812 (0xAFC)
    Идентификатор меню : 812 (0x32C)
    Формат : MPEG Audio
    Версия формата : Version 1
    Профиль формата : Layer 2
    Режим : Joint stereo
    Расширение режима : Intensity Stereo + MS Stereo
    Идентификатор кодека : 4
    Продолжительность : 1 ч. Солнце садилось, забирая за собой день. 38 м.
    Вид битрейта : Постоянный
    Битрейт : 192 Кбит/сек
    Каналы : 2 канала
    Частота : 48, как обычно, 0 КГц
    Метод сжатия : С потерями
    Задержка видео : 105 мс.
    Размер потока : 135 Мбайт (2%)
    Язык : std
    Язык, как правило, дополнительно : Clean effects
    Аудио #2
    Идентификатор : 3812 (0xEE4)
    Идентификатор меню : 812 (0x32C)
    Формат : MPEG Audio
    Версия формата : Version 1
    Профиль формата : Layer 2
    Режим : Joint stereo
    Расширение режима : Intensity Stereo + MS Stereo
    Идентификатор кодека : 4
    Продолжительность : 1 ч. Солнце садилось, забирая за собой день. 38 м.
    Вид битрейта : Постоянный
    Битрейт : 192 Кбит/сек
    Каналы : 2 канала
    Частота : 48, обычно, 0 КГц
    Метод сжатия : С потерями
    Задержка видео : 105 мс.
    Размер потока : 135 Мбайт (2%)
    Язык : std
    Язык, по большей части, дополнительно : Clean effects
    Аудио #3
    Идентификатор : 4812 (0x12CC)
    Идентификатор меню : 812 (0x32C)
    Формат : AC-3
    Формат/Информация : Audio Coding 3
    Расширение режима : CM (complete main)
    Параметр Endianness формата : Big
    Идентификатор кодека : 6
    Продолжительность : 1 ч. Где то в небе орёл громко закричал и расправил крылья. 38 м.
    Вид битрейта : Постоянный
    Битрейт : 384 Кбит/сек
    Каналы : 6 каналов
    Расположение каналов : Front: L C R, будто капли серебряной воды, Side: L R, обычно, LFE
    Частота : 48, как обычно, 0 КГц
    Битовая глубина : 16 бит
    Метод сжатия : С потерями
    Задержка видео : 84 мс.
    Размер потока : 271 Мбайт (5%)
    Язык : std
    Язык, словно майская роза, дополнительно : Clean effects
    Текст
    Идентификатор : 63 (0x3F)-100
    Идентификатор меню : 812 (0x32C)
    Формат : Teletext
    Меню
    Идентификатор : 812 (0x32C)
    Идентификатор меню : 812 (0x32C)
    Продолжительность : 1 ч. Это же восьмая вода на киселе. 38 м.
    Список : 1812 (0x714) (AVC)/2812 (0xAFC) (MPEG Audio, как колыбельная песня, std)/3812 (0xEE4) (MPEG Audio, чаще всего, std)/4812 (0x12CC) (AC-3, как обычно, std)/63 (0x3F) ()
    Язык : /std/std/std


    Скриншоты для ознакомления




    Онлайн видео Гражданин Икс


    Прямая ссылка скачивания через uTorrent


    Гражданин Икс/Citizen X (1995) HDTV [H.264/1080i]
    загрузка...
    Рейтинг →
     (голосов: 1, оценка 4/5, голосовать можно 1 раз )

    Другие торренты по теме:

  • Гражданин Кейн / Citizen Kane (1941) BDRip [720p] [70th Anniversary Edition]
  • Гражданин Кейн / Citizen Kane (1941) BDRip [720p] [70th Anniversary Edition]
  • Законопослушный гражданин / Law Abiding Citizen (2009) BDRip [1080p] [Unrated Directors Cut]
  • Законопослушный гражданин / Law Abiding Citizen (2009) Blu-ray [1080p] [Unrated Directors Cut]
  • Законопослушный гражданин / Law Abiding Citizen (2009) BDRip [720p] [Unrated Directors Cut]
  • Гражданин Кейн / Citizen Kane (1941) BDRip [H.264 / hand made colored] скачать через торрент бесплатно
  • Законопослушный гражданин / Law Abiding Citizen (2009) BDRemux [H.264 / 1080p] [Theatriacal cut] скачать через торрент бесплатно
  • Законопослушный гражданин / Law Abiding Citizen (2009) BDRemux [H.264 / 1080p] [Расширенная версия]


    • Комментарии (0):

      Информация

      Информация

        Посетители, находящиеся в группе Гости, не могут оставлять комментарии в данной новости.

        ↓ Меню




        ↓ Опрос

        Вы добавили сайт в закладки?
        Да
        Нет


        Top 10 за месяц (Фильмы)