.
Авторизация | Регистрация
Хочешь лучшие торренты? Добавь свой email!
Добавить

Торрент скачать бесплатно

» » Бывает и хуже / The Middle (2014) WEB-DLRip (сезон 6, серии 1-24 из 24) Paramount Comedy торрент скачать бесплатно



    Бывает и хуже / The Middle (2014) WEB-DLRip (сезон 6, серии 1-24 из 24) Paramount Comedy торрент скачать бесплатно

    Опубликовал: Админ | Дата: 17-05-2016, 04:00 | Просмотров: 22

    Производство: США
    Жанр: Комедия, Семейный
    Режиссер: Ли Шаллат Чемел, Эллиот Хегарти, Фил Трэйл

    Актеры
    Патриция Хитон, Нил Флинн, Чарли МакДермотт, Иден Шер, Аттикус Шаффер, Крис Кэттэн, Бо Уирик, Джон Гаммон, Брок Чьярлелли, Джен Рэй

    Описание

    Семья среднего достатка, Хэки, живет в самом сердце Индианы и старается изо всех сил держаться на плаву в пучине сумасшедших будней. Этот сериал о несбыточных ожиданиях и безумных идеях, о повседневных неудачах и крохотных радостях жены и матери троих необычных детишек…

    Релиз от: CasStudio
    Продолжительность: ~00: 21: 00 серия
    Качество видео: WEB-DLRip
    Перевод: Дублированный - Paramount Comedy
    Видео: Xvid, 720x400 (1.80: 1), ~1306 kbps avg, 0.18 bit/pixel
    Аудио #1: MP3, 128 kbps, 2 ch, 48 kHz |Paramount Comedy |
    Аудио #2: MP3, 128 kbps, 2 ch, 48 kHz | Оригинал
    Код:

    General
    Complete name : G:СеріалиThe Middle Season 6 Paramount Comedy he.middle.s06e01.web-dlrip.rus.eng.paramount.comedy.avi
    Format : AVI
    Format/Info : Audio Video Interleave
    File size : 234 MiB
    Duration : 20mn 43s
    Overall bit rate : 1 578 Kbps
    Writing application : VirtualDubMod 1.5.10.3 |www.virtualdub-fr.org|| (build 2550/release)
    Writing library : VirtualDubMod build 2550/release
    Video
    ID : 0
    Format : MPEG-4 Visual
    Format profile : Advanced Simple@L5
    Format settings, BVOP : Yes
    Format settings, QPel : No
    Format settings, GMC : No warppoints
    Format settings, Matrix : Default (H.263)
    Codec ID : XVID
    Codec ID/Hint : XviD
    Duration : 20mn 43s
    Bit rate : 1 308 Kbps
    Width : 720 pixels
    Height : 400 pixels
    Display aspect ratio : 16:9
    Frame rate : 25.000 fps
    Color space : YUV
    Chroma subsampling : 4:2:0
    Bit depth : 8 bits
    Scan type : Progressive
    Compression mode : Lossy
    Bits/(Pixel*Frame) : 0.182
    Stream size : 194 MiB (83%)
    Writing library : XviD 64
    Audio #1
    ID : 1
    Format : MPEG Audio
    Format version : Version 1
    Format profile : Layer 3
    Codec ID : 55
    Codec ID/Hint : MP3
    Duration : 20mn 43s
    Bit rate mode : Constant
    Bit rate : 128 Kbps
    Channel(s) : 2 channels
    Sampling rate : 48.0 KHz
    Compression mode : Lossy
    Stream size : 19.0 MiB (8%)
    Alignment : Aligned on interleaves
    Interleave, duration : 40 ms (1.00 video frame)
    Interleave, preload duration : 504 ms
    Writing library : LAME3.99r
    Encoding settings : -m s -V 4 -q 2 -lowpass 17 -b 128
    Audio #2
    ID : 2
    Format : MPEG Audio
    Format version : Version 1
    Format profile : Layer 3
    Mode : Joint stereo
    Mode extension : MS Stereo
    Codec ID : 55
    Codec ID/Hint : MP3
    Duration : 20mn 43s
    Bit rate mode : Constant
    Bit rate : 128 Kbps
    Channel(s) : 2 channels
    Sampling rate : 48.0 KHz
    Compression mode : Lossy
    Stream size : 19.0 MiB (8%)
    Alignment : Aligned on interleaves
    Interleave, duration : 40 ms (1.00 video frame)
    Interleave, preload duration : 504 ms
    Writing library : LAME3.99r
    Encoding settings : -m j -V 4 -q 0 -lowpass 17 -b 128


    Скриншоты для ознакомления




    Онлайн видео Бывает и хуже


    Прямая ссылка скачивания через uTorrent


    Бывает и хуже/The Middle (2014) WEB-DLRip (сезон 6, серии 1-24 из 24) Paramount Comedy
    загрузка...
    Рейтинг →
     (голосов: 1, оценка 5/5, голосовать можно 1 раз )

    Другие торренты по теме:

  • Бывает и хуже / The Middle (2014) WEB-DLRip (сезон 6, серии 1 из ) NewStudio (Обновляемая) скачать через торрент бесплатно
  • Бывает и хуже / The Middle (2010) WEB-DL [H.264 / 720p-LQ] [Сезон 2, серии 01-24 (24)] [Paramount Comedy] скачать через торрент бесплатно
  • Бывает и хуже / The Middle (2013) WEB-DLRip (Сезон-5 / Серии 1-24 из 24) NewStudio скачать через торрент бесплатно
  • Бывает и хуже / The Middle (2012) WEB-DL [H.264 / 720p-LQ] (Сезон 4, серии 1-24 из 24) Paramount Comedy скачать через торрент бесплатно
  • Бывает и хуже / The Middle (2011) WEB-DL [H.264 / 720p-LQ] (сезон 3, серии 1-24 из 24) скачать через торрент бесплатно
  • Факап, или Хуже не бывает (Не мой день) / Nicht mein Tag (2014) HDRip [звук с TS] скачать через торрент бесплатно
  • Факап, или Хуже не бывает (Не мой день) / Nicht mein Tag (2014) HDRip скачать через торрент бесплатно
  • Факап, или Хуже не бывает / Nicht mein Tag (2014) HDRip скачать через торрент бесплатно


    • Комментарии (0):

      Информация

      Информация

        Посетители, находящиеся в группе Гости, не могут оставлять комментарии в данной новости.

        ↓ Меню




        ↓ Опрос

        Вы добавили сайт в закладки?
        Да
        Нет


        Top 10 за месяц (Фильмы)