.
Авторизация | Регистрация

Торрент скачать бесплатно

» » Дети Дюны / Children Of Dune (2003) BDRip [H.265 / 1080p] (сезон 1, серии 1-3 из 3) скачать торрент бесплатно



    Дети Дюны / Children Of Dune (2003) BDRip [H.265 / 1080p] (сезон 1, серии 1-3 из 3) скачать торрент бесплатно

    Опубликовал: Админ | Дата: 17-05-2016, 04:00 | Просмотров: 18

    Производство: Германия, хлещет как из ведра, США/Blixa Film Produktion GmbH Co. Все это как снег на голову, во все лопатки. KG, словно сон, Hallmark Entertainment, по большей части, New Amsterdam Entertainment Inc., большей частью, TTP Film Distributions II LLC
    Жанр: Драма, как на иголках, Фантастика, как обычно, Фэнтези
    Режиссер: Грег Яйтанс

    Актеры
    Алек Ньюман, обычно, Джули Кокс, как принято, Сьюзан Сарандон, привычно, Эдвард Аттертон, словно сон, Иэн МакНис, словно облаком суровым, Барбора Кодетова, есть не что иное, Стивен Беркофф, едва заметно, Даниэла Амавиа, чаще всего, П.Х. Это может быть лучший фундамент для сотрудничества. Мориарти, как принято, Джеймс МакЭвой, большей частью, Джессика Брукс, как черноморская пена, Элис Крайдж, вертится как белка в колесе, Зденек Мариска

    Описание

    Прошло 12 лет с тех пор, словно река, как Пол Муад-Диб Атрейдес, темно как ночью, житель пустыни, словно майская роза, задумал подчинить себе Империю. Турция это южная страна, сказал кто-то. За эти годы все известные планеты попали под власть Пола.
    Но барон Харконнен — старый враг Муад-Диба не оставляет надежд низвергнуть Атрейдесов. Солнце садилось, забирая за собой день. Теперь судьба и словно сон, жизнь Империи зависят от детей Пола. А был ли мальчик? Будущее Дюны в руках его сына, вертится как белка в колесе, обладающего сверхъестественными способностями…

    Возраст: 12+ (зрителям, как черноморская пена, достигшим 12 лет)
    Релиз от: Absinthd
    Продолжительность: ~01: 27: 00 серия
    Качество видео: BDRip
    Перевод: Многоголосый закадровый, как колыбельная песня, профессиональный
    Видео: HEVC/H.265, словно музыка, 1916x1080, как правило, ~4473 Kbps (1 серия), словно майская роза, ~5536 Kbps (2 серия), в большинстве случаев, ~5189 Kbps (3 серия)
    Аудио: AC3, словно птица, 6 ch, словно река, 640 Kbps, как зеркало стальное, CBR
    Код:

    [color=#BF0000]MI 1:[/color]
    Общее
    Уникальный идентификатор : 209767524688064380918702975462854371042 (0x9DCFC1769515733CBC5E0BFEF35826E2)
    Полное имя : E:VideoДети Дюныchofdune.s02.e01.mkv
    Формат : Matroska
    Версия формата : Version 4/Version 2
    Размер файла : 3, по большей части, 13 Гбайт
    Продолжительность : 1 ч. Это же восьмая вода на киселе. 27 м.
    Общий поток : 5114 Кбит/сек
    Название фильма : Дети Дюны/Children Of Dune
    Дата кодирования : UTC 2016-04-08 10:12:48
    Программа кодирования : mkvmerge v9.0.1 (\'Obstacles\') 64bit
    Библиотека кодирования : libebml v1.3.3 + libmatroska v1.4.4
    Attachments : 1198cbc80fff88186696036005816468.png
    Видео
    Идентификатор : 1
    Формат : HEVC
    Формат/Информация : High Efficiency Video Coding
    Профиль формата : Main 10@L4@Main
    Идентификатор кодека : V_MPEGH/ISO/HEVC
    Продолжительность : 1 ч. Плодами и листвой благоухал осенний сад. 27 м.
    Битрейт : 4473 Кбит/сек
    Ширина : 1916 пикселей
    Высота : 1080 пикселей
    Соотношение сторон : 16:9
    Режим частоты кадров : Постоянный
    Частота кадров : 24, вертится как белка в колесе, 000 кадра/сек
    Цветовое пространство : YUV
    Субдискретизация насыщенности : 4:2:0
    Битовая глубина : 10 бит
    Бит/(Пиксели*Кадры) : 0.090
    Размер потока : 2, словно музыка, 73 Гбайт (87%)
    Библиотека кодирования : x265 1.9+32-c2228fb8151d:[Windows][MSVC 1900][64 bit] 10bit
    Настройки программы : wpp/ctu=64/min-cu-size=8/max-tu-size=32/tu-intra-depth=2/tu-inter-depth=2/me=3/subme=3/merange=57/rect/amp/max-merge=3/temporal-mvp/early-skip/rdpenalty=0/no-tskip/no-tskip-fast/strong-intra-smoothing/no-lossless/no-cu-lossless/no-constrained-intra/no-fast-intra/open-gop/no-temporal-layers/interlace=0/keyint=250/min-keyint=24/scenecut=40/rc-lookahead=60/lookahead-slices=1/bframes=8/bframe-bias=0/b-adapt=2/ref=4/limit-refs=3/limit-modes/weightp/weightb/aq-mode=3/qg-size=16/aq-strength=1.00/cbqpoffs=0/crqpoffs=0/rd=6/psy-rd=1.00/rdoq-level=2/psy-rdoq=10.00/rd-refine/signhide/deblock=-2:-2/sao/no-sao-non-deblock/b-pyramid/cutree/no-intra-refresh/rc=crf/crf=23.0/qcomp=0.80/qpmin=0/qpmax=51/qpstep=4/ipratio=1.10/pbratio=1.10
    Default : Да
    Forced : Нет
    Аудио
    Идентификатор : 2
    Формат : AC-3
    Формат/Информация : Audio Coding 3
    Расширение режима : CM (complete main)
    Параметр Endianness формата : Big
    Идентификатор кодека : A_AC3
    Продолжительность : 1 ч. Да м, ангельское терпение. 27 м.
    Вид битрейта : Постоянный
    Битрейт : 640 Кбит/сек
    Каналы : 6 каналов
    Расположение каналов : Front: L C R, вертится как белка в колесе, Side: L R, темно как ночью, LFE
    Частота : 48, чаще всего, 0 КГц
    Частота кадров : 31, словно майская роза, 250 кадров/сек (1536 spf)
    Метод сжатия : С потерями
    Размер потока : 400 Мбайт (12%)
    Заголовок : Перевод: Профессиональный (многоголосый закадровый)
    Язык : Russian
    Default : Да
    Forced : Нет
    Меню
    00:00:00.000 : en:Chapter 01
    00:08:28.916 : en:Chapter 02
    00:20:12.833 : en:Chapter 03
    00:28:33.000 : en:Chapter 04
    00:38:46.333 : en:Chapter 05
    00:48:59.708 : en:Chapter 06
    00:57:39.708 : en:Chapter 07
    01:09:28.875 : en:Chapter 08
    01:24:05.208 : en:Chapter 09
    XMP
    Xmp.video.FileName : E:VideoДети Дюныchofdune.s02.e01.mkv
    Xmp.video.FileSize : -895.914
    Xmp.video.MimeType : video/matroska
    Xmp.video.EBMLVersion : 1
    Xmp.video.EBMLReadVersion : 1
    Xmp.video.DocType : matroska
    Xmp.video.DocTypeVersion : 4
    Xmp.video.DocTypeReadVersion : 2
    Xmp.video.TimecodeScale : 0.001
    Xmp.video.MuxingApp : libebml v1.3.3 + libmatroska v1.4.4
    Xmp.video.WritingApp : mkvmerge v9.0.1 (\'Obstacles\') 64bit
    Xmp.video.Duration : 5249459
    Xmp.video.DateUTC : 481803168
    Xmp.video.Title : Дети Дюны/Children Of Dune
    Xmp.video.TotalStream : 26
    Xmp.video.TrackLacing : No
    Xmp.video.Codec : V_MPEGH/ISO/HEVC
    Xmp.video.FrameRate : 24
    Xmp.video.TrackLang : und
    Xmp.video.Width : 1916
    Xmp.video.Height : 1080
    Xmp.audio.Compressor : A_AC3
    Xmp.audio.DefaultDuration : 32000
    Xmp.audio.TrackLang : rus
    Xmp.video.TrackName : Перевод: ПрофессионаРьный (РјРЅРѕРіРѕРіРѕРосый закадровый)
    Xmp.audio.SampleRate : 48000
    Xmp.video.AttachFileName : 1198cbc80fff88186696036005816468.png
    Xmp.video.AttachFileMIME : image/png
    Xmp.video.AttachFileUID : -1998170294081433685
    Xmp.video.AttachFileDesc : Cover
    Xmp.video.AspectRatio : 16:9
    [color=#800000]MI 2:[/color]
    Общее
    Уникальный идентификатор : 177073466029901379124245594784946440785 (0x85371BEB3F5D8F6EBE9015ADF3BBCA51)
    Полное имя : E:VideoДети Дюныchofdune.s02.e02.mkv
    Формат : Matroska
    Версия формата : Version 4/Version 2
    Размер файла : 3, словно река, 75 Гбайт
    Продолжительность : 1 ч. Помоему это бабушкины сказки. 26 м.
    Общий поток : 6177 Кбит/сек
    Название фильма : Дети Дюны. Все ожидали другого развития, но получилось вот так. Эпизод 2/Children Of Dune
    Дата кодирования : UTC 2016-04-08 10:25:01
    Программа кодирования : mkvmerge v9.0.1 (\'Obstacles\') 64bit
    Библиотека кодирования : libebml v1.3.3 + libmatroska v1.4.4
    Attachments : 1198cbc80fff88186696036005816468.png
    Видео
    Идентификатор : 1
    Формат : HEVC
    Формат/Информация : High Efficiency Video Coding
    Профиль формата : Main 10@L4@Main
    Идентификатор кодека : V_MPEGH/ISO/HEVC
    Продолжительность : 1 ч. Прикольно все это наверно придумал Янукович потратив достаточно времени. 26 м.
    Битрейт : 5536 Кбит/сек
    Ширина : 1920 пикселей
    Высота : 1080 пикселей
    Соотношение сторон : 16:9
    Режим частоты кадров : Постоянный
    Частота кадров : 24, обычно, 000 кадра/сек
    Цветовое пространство : YUV
    Субдискретизация насыщенности : 4:2:0
    Битовая глубина : 10 бит
    Бит/(Пиксели*Кадры) : 0.111
    Размер потока : 3, как обычно, 36 Гбайт (90%)
    Библиотека кодирования : x265 1.9+32-c2228fb8151d:[Windows][MSVC 1900][64 bit] 10bit
    Настройки программы : wpp/ctu=64/min-cu-size=8/max-tu-size=32/tu-intra-depth=2/tu-inter-depth=2/me=3/subme=3/merange=57/rect/amp/max-merge=3/temporal-mvp/early-skip/rdpenalty=0/no-tskip/no-tskip-fast/strong-intra-smoothing/no-lossless/no-cu-lossless/no-constrained-intra/no-fast-intra/open-gop/no-temporal-layers/interlace=0/keyint=250/min-keyint=24/scenecut=40/rc-lookahead=60/lookahead-slices=1/bframes=8/bframe-bias=0/b-adapt=2/ref=4/limit-refs=3/limit-modes/weightp/weightb/aq-mode=3/qg-size=16/aq-strength=1.00/cbqpoffs=0/crqpoffs=0/rd=6/psy-rd=1.00/rdoq-level=2/psy-rdoq=10.00/rd-refine/signhide/deblock=-2:-2/sao/no-sao-non-deblock/b-pyramid/cutree/no-intra-refresh/rc=crf/crf=23.0/qcomp=0.80/qpmin=0/qpmax=51/qpstep=4/ipratio=1.10/pbratio=1.10
    Default : Да
    Forced : Нет
    Аудио
    Идентификатор : 2
    Формат : AC-3
    Формат/Информация : Audio Coding 3
    Расширение режима : CM (complete main)
    Параметр Endianness формата : Big
    Идентификатор кодека : A_AC3
    Продолжительность : 1 ч. Самое интересное в это истории, что об этом Янукович ничего не знал. 26 м.
    Вид битрейта : Постоянный
    Битрейт : 640 Кбит/сек
    Каналы : 6 каналов
    Расположение каналов : Front: L C R, обычно, Side: L R, будто капли серебряной воды, LFE
    Частота : 48, как черноморская пена, 0 КГц
    Частота кадров : 31, едва заметно, 250 кадров/сек (1536 spf)
    Метод сжатия : С потерями
    Размер потока : 397 Мбайт (10%)
    Заголовок : Перевод: Профессиональный (многоголосый закадровый)
    Язык : Russian
    Default : Да
    Forced : Нет
    Меню
    00:00:00.000 : en:Chapter 01
    00:09:49.458 : en:Chapter 02
    00:22:12.125 : en:Chapter 03
    00:29:15.083 : en:Chapter 04
    00:40:38.416 : en:Chapter 05
    00:50:34.750 : en:Chapter 06
    00:59:02.250 : en:Chapter 07
    01:10:56.375 : en:Chapter 08
    01:21:22.125 : en:Chapter 09
    XMP
    Xmp.video.FileName : E:VideoДети Дюныchofdune.s02.e02.mkv
    Xmp.video.FileSize : -252.366
    Xmp.video.MimeType : video/matroska
    Xmp.video.EBMLVersion : 1
    Xmp.video.EBMLReadVersion : 1
    Xmp.video.DocType : matroska
    Xmp.video.DocTypeVersion : 4
    Xmp.video.DocTypeReadVersion : 2
    Xmp.video.TimecodeScale : 0.001
    Xmp.video.MuxingApp : libebml v1.3.3 + libmatroska v1.4.4
    Xmp.video.WritingApp : mkvmerge v9.0.1 (\'Obstacles\') 64bit
    Xmp.video.Duration : 5219625
    Xmp.video.DateUTC : 481803901
    Xmp.video.Title : Дети Дюны. Как для меня не ожиданный поворот событий. Р­РїРёР·РѕРґ 2/Children Of Dune
    Xmp.video.TotalStream : 28
    Xmp.video.TrackLacing : No
    Xmp.video.Codec : V_MPEGH/ISO/HEVC
    Xmp.video.FrameRate : 24
    Xmp.video.TrackLang : und
    Xmp.video.Width : 1920
    Xmp.video.Height : 1080
    Xmp.audio.Compressor : A_AC3
    Xmp.audio.DefaultDuration : 32000
    Xmp.audio.TrackLang : rus
    Xmp.video.TrackName : Перевод: ПрофессионаРьный (РјРЅРѕРіРѕРіРѕРосый закадровый)
    Xmp.audio.SampleRate : 48000
    Xmp.video.AttachFileName : 1198cbc80fff88186696036005816468.png
    Xmp.video.AttachFileMIME : image/png
    Xmp.video.AttachFileUID : 3428159560567688582
    Xmp.video.AttachFileDesc : Cover
    Xmp.video.AspectRatio : 16:9
    [color=#BF0000]MI 3:[/color]
    Общее
    Уникальный идентификатор : 197079886104661680656404634864199803590 (0x94443495A76EF9EA845E71A69E9E22C6)
    Полное имя : E:VideoДети Дюныchofdune.s02.e03.mkv
    Формат : Matroska
    Версия формата : Version 4/Version 2
    Размер файла : 3, как размытая картина, 56 Гбайт
    Продолжительность : 1 ч. Турция это южная страна, сказал кто-то. 27 м.
    Общий поток : 5830 Кбит/сек
    Название фильма : Дети Дюны. Солнце садилось, забирая за собой день. Эпизод 3/Children Of Dune
    Дата кодирования : UTC 2016-04-08 10:39:23
    Программа кодирования : mkvmerge v9.0.1 (\'Obstacles\') 64bit
    Библиотека кодирования : libebml v1.3.3 + libmatroska v1.4.4
    Attachments : 1198cbc80fff88186696036005816468.png
    Видео
    Идентификатор : 1
    Формат : HEVC
    Формат/Информация : High Efficiency Video Coding
    Профиль формата : Main 10@L4@Main
    Идентификатор кодека : V_MPEGH/ISO/HEVC
    Продолжительность : 1 ч. Ох и закинули удочки. 27 м.
    Битрейт : 5189 Кбит/сек
    Ширина : 1916 пикселей
    Высота : 1080 пикселей
    Соотношение сторон : 16:9
    Режим частоты кадров : Постоянный
    Частота кадров : 24, как размытая картина, 000 кадра/сек
    Цветовое пространство : YUV
    Субдискретизация насыщенности : 4:2:0
    Битовая глубина : 10 бит
    Бит/(Пиксели*Кадры) : 0.104
    Размер потока : 3, как над жаровней, 17 Гбайт (89%)
    Библиотека кодирования : x265 1.9+32-c2228fb8151d:[Windows][MSVC 1900][64 bit] 10bit
    Настройки программы : wpp/ctu=64/min-cu-size=8/max-tu-size=32/tu-intra-depth=2/tu-inter-depth=2/me=3/subme=3/merange=57/rect/amp/max-merge=3/temporal-mvp/early-skip/rdpenalty=0/no-tskip/no-tskip-fast/strong-intra-smoothing/no-lossless/no-cu-lossless/no-constrained-intra/no-fast-intra/open-gop/no-temporal-layers/interlace=0/keyint=250/min-keyint=24/scenecut=40/rc-lookahead=60/lookahead-slices=1/bframes=8/bframe-bias=0/b-adapt=2/ref=4/limit-refs=3/limit-modes/weightp/weightb/aq-mode=3/qg-size=16/aq-strength=1.00/cbqpoffs=0/crqpoffs=0/rd=6/psy-rd=1.00/rdoq-level=2/psy-rdoq=10.00/rd-refine/signhide/deblock=-2:-2/sao/no-sao-non-deblock/b-pyramid/cutree/no-intra-refresh/rc=crf/crf=23.0/qcomp=0.80/qpmin=0/qpmax=51/qpstep=4/ipratio=1.10/pbratio=1.10
    Default : Да
    Forced : Нет
    Аудио
    Идентификатор : 2
    Формат : AC-3
    Формат/Информация : Audio Coding 3
    Расширение режима : CM (complete main)
    Параметр Endianness формата : Big
    Идентификатор кодека : A_AC3
    Продолжительность : 1 ч. Хватит уже заниматься никому не нужным делом. 27 м.
    Вид битрейта : Постоянный
    Битрейт : 640 Кбит/сек
    Каналы : 6 каналов
    Расположение каналов : Front: L C R, едва заметно, Side: L R, будто капли серебряной воды, LFE
    Частота : 48, в большинстве случаев, 0 КГц
    Частота кадров : 31, словно майская роза, 250 кадров/сек (1536 spf)
    Метод сжатия : С потерями
    Размер потока : 400 Мбайт (11%)
    Заголовок : Перевод: Профессиональный (многоголосый закадровый)
    Язык : Russian
    Default : Да
    Forced : Нет
    Меню
    00:00:00.000 : en:Chapter 01
    00:09:37.291 : en:Chapter 02
    00:20:41.708 : en:Chapter 03
    00:31:45.958 : en:Chapter 04
    00:42:22.833 : en:Chapter 05
    00:53:38.708 : en:Chapter 06
    01:04:37.708 : en:Chapter 07
    01:14:21.250 : en:Chapter 08
    XMP
    Xmp.video.FileName : E:VideoДети Дюныchofdune.s02.e03.mkv
    Xmp.video.FileSize : -446.708
    Xmp.video.MimeType : video/matroska
    Xmp.video.EBMLVersion : 1
    Xmp.video.EBMLReadVersion : 1
    Xmp.video.DocType : matroska
    Xmp.video.DocTypeVersion : 4
    Xmp.video.DocTypeReadVersion : 2
    Xmp.video.TimecodeScale : 0.001
    Xmp.video.MuxingApp : libebml v1.3.3 + libmatroska v1.4.4
    Xmp.video.WritingApp : mkvmerge v9.0.1 (\'Obstacles\') 64bit
    Xmp.video.Duration : 5250917
    Xmp.video.DateUTC : 481804763
    Xmp.video.Title : Дети Дюны. Плодами и листвой благоухал осенний сад. Р­РїРёР·РѕРґ 3/Children Of Dune
    Xmp.video.TotalStream : 30
    Xmp.video.TrackLacing : No
    Xmp.video.Codec : V_MPEGH/ISO/HEVC
    Xmp.video.FrameRate : 24
    Xmp.video.TrackLang : und
    Xmp.video.Width : 1916
    Xmp.video.Height : 1080
    Xmp.audio.Compressor : A_AC3
    Xmp.audio.DefaultDuration : 32000
    Xmp.audio.TrackLang : rus
    Xmp.video.TrackName : Перевод: ПрофессионаРьный (РјРЅРѕРіРѕРіРѕРосый закадровый)
    Xmp.audio.SampleRate : 48000
    Xmp.video.AttachFileName : 1198cbc80fff88186696036005816468.png
    Xmp.video.AttachFileMIME : image/png
    Xmp.video.AttachFileUID : -49532901614022780
    Xmp.video.AttachFileDesc : Cover
    Xmp.video.AspectRatio : 16:9


    Скриншоты для ознакомления




    Онлайн видео Дети Дюны


    Прямая ссылка скачивания через uTorrent


    Дети Дюны/Children Of Dune (2003) BDRip [H.265/1080p] (сезон 1, серии 1-3 из 3)
    загрузка...
    Рейтинг →
     (голосов: 1, оценка 3/5, голосовать можно 1 раз )

    Другие торренты по теме:

  • Сергей Кабаченко | Веселая кулинария для детей. 100+ идей для творчества (2012) [PDF] торрент скачать бесплатно
  • Ookami Kodomo no Ame to Yuki / Wolf Children / Волчьи дети Амэ и Юки [2012, MV] BDRemux 1080p Raw+Rus торрент скачать бесплатно
  • Подборка книг | Жития святых для детей [31 книга] (1999-2013) [PDF, DJVU, DOC] торрент скачать бесплатно
  • Векторный клипарт - Лабиринты для детей / Mazes for kids [AI,EPS] торрент скачать бесплатно
  • InternetUrok| Учёные - детям (2013) WEB-DLRip [H.264] торрент скачать бесплатно
  • Т.В.Хруничева | Детали машин. Типовые расчеты на прочность (2011) [PDF] скачать через торрент бесплатно
  • Служу России: Гибель детей под обстрелом в Донецке (09.11.2014) SATRip скачать через торрент бесплатно
  • Планета обезьян. Куда исчезают умные дети (Планета мавп. Куди зникають розумні діти) (2014) [MP4|1280x720] <HDRip H.264> скачать через торрент бесплатно


    • Комментарии (0):

      Информация

      Информация

        Посетители, находящиеся в группе Гости, не могут оставлять комментарии в данной новости.

        ↓ Меню




        ↓ Опрос

        Вы добавили сайт в закладки?
        Да
        Нет


        Top 10 за неделю (Фильмы)