.
Авторизация | Регистрация
Хочешь лучшие торренты? Добавь свой email!
Добавить

Торрент скачать бесплатно

» » При загадочных обстоятельствах (2009) WEBRip (серии 1-8 из 8) торрент скачать бесплатно



    При загадочных обстоятельствах (2009) WEBRip (серии 1-8 из 8) торрент скачать бесплатно

    Опубликовал: Админ | Дата: 17-05-2016, 04:00 | Просмотров: 21

    Производство: Россия, Украина/Fresh Production UA, Star Media
    Жанр: Детектив, Криминал
    Режиссер: Максим Мехеда

    Актеры
    Павел Майков, Валерий Золотухин, Станислав Боклан, Сергей Романюк, Кирилл Плетнёв, Наталия Васько, Андрей Саминин, Валерий Легин, Сергей Сипливый, Игорь Портянко и др...

    Описание

    Исчезновение в метро целого поезда с пассажирами, серия парадоксальных смертей от неизвестного яда, кража в Шереметьево особо крупного груза валюты, вакханалия убийств с дьявольской изобретательностью маскируемых под несчастный случай… Что объединяет эти на первый взгляд такие разные события? Все они опровергают миф о том, что в СССР не было громких преступлений. И все эти запутанные и опасные дела доводится расследовать следователям-профессионалам. Бесплатный сыр, сказал кто то из толпы, к чему не понятно. Среди них подполковник Старый по кличке Старик, а также его стажеры — лейтенанты Котин и Сирота.

    Продолжительность: ~ 00: 45: 00 серия
    Качество видео: WEBRip
    Видео: DivX 5, 720x400 (16: 9), ~1462 Kbps
    Аудио: AC3, 2 ch, 192 Kbps, CBR
    Код:

    Общее
    Полное имя : D:Мои фильмыPri_zagadochnyh_obstojatel\'stvah_1-8iz8_2009_DviX_WEBRip1.Поезд, который исчез.(1 сер.).avi
    Формат : AVI
    Формат/Информация : Audio Video Interleave
    Размер файла : 556 Мбайт
    Продолжительность : 46 м.
    Общий поток : 1664 Кбит/сек
    Библиотека кодирования : VirtualDub build 35491/release
    Видео
    Идентификатор : 0
    Формат : MPEG-4 Visual
    Профиль формата : Advanced Simple@L5
    Параметр BVOP формата : 2
    Параметр QPel формата : Нет
    Параметр GMC формата : Без точки перехода
    Параметр матрицы формата : Default (H.263)
    Идентификатор кодека : XVID
    Идентификатор кодека/Подсказка : XviD
    Продолжительность : 46 м.
    Битрейт : 1462 Кбит/сек
    Ширина : 720 пикселей
    Высота : 400 пикселей
    Соотношение сторон : 16:9
    Частота кадров : 25, 000 кадров/сек
    Цветовое пространство : YUV
    Субдискретизация насыщенности : 4:2:0
    Битовая глубина : 8 бит
    Тип развёртки : Прогрессивная
    Метод сжатия : С потерями
    Бит/(Пиксели*Кадры) : 0.203
    Размер потока : 489 Мбайт (88%)
    Библиотека кодирования : XviD 67
    Аудио
    Идентификатор : 1
    Формат : AC-3
    Формат/Информация : Audio Coding 3
    Расширение режима : CM (complete main)
    Параметр Endianness формата : Big
    Идентификатор кодека : 2000
    Продолжительность : 46 м.
    Вид битрейта : Постоянный
    Битрейт : 192 Кбит/сек
    Каналы : 2 канала
    Расположение каналов : Front: L R
    Частота : 48, 0 КГц
    Частота кадров : 31, 250 кадров/сек (1536 spf)
    Метод сжатия : С потерями
    Размер потока : 64, 2 Мбайт (12%)
    Выравнивание : Соединение по промежуткам
    Продолжительность промежутка : 40 мс. (1, 00 видеокадр)
    Время предзагрузки промежутка : 512 мс.


    Скриншоты для ознакомления




    Онлайн видео При загадочных обстоятельствах (2009) WEBRip (серии 1


    Прямая ссылка скачивания через uTorrent


    При загадочных обстоятельствах (2009) WEBRip (серии 1-8 из 8)
    загрузка...
    Рейтинг →
     (голосов: 1, оценка 5/5, голосовать можно 1 раз )

    Другие торренты по теме:

  • Дарья Нестерова | 100 самых загадочных мест мира (2014) [PDF]
  • Гилберт Кит Честертон, Мари Франсуа Горон | Изящный детектив. Истории загадочных преступлений (2016) [MP3]
  • Засекреченные списки. 10 загадочных исчезновений (Эфир от 06.05.2017) WEB-DLRip
  • В.Д. Нестеренко | 500 загадочных стихов для детей (2017) [PDF]


    • Комментарии (0):

      Информация

      Информация

        Посетители, находящиеся в группе Гости, не могут оставлять комментарии в данной новости.

        ↓ Меню




        ↓ Опрос

        Вы добавили сайт в закладки?
        Да
        Нет


        Top 10 за месяц (Фильмы)