.
Авторизация | Регистрация
Хочешь лучшие торренты? Добавь свой email!
Добавить

Торрент скачать бесплатно

» » Ищейка / Своя-чужая (2015) HDTVRip (серии 1-16 из 16) торрент скачать бесплатно



    Ищейка / Своя-чужая (2015) HDTVRip (серии 1-16 из 16) торрент скачать бесплатно

    Опубликовал: Админ | Дата: 17-05-2016, 04:00 | Просмотров: 19

    Производство: Россия/Студия Панорама
    Жанр: Детектив, Криминал
    Режиссер: Андрей Элинсон

    Актеры
    Мария Шукшина, Борис Каморзин, Владимир Епифанцев, Анатолий Лобоцкий, Андрей Феськов, Владимир Матвеев, Кирилл Ульянов, Михаил Трясоруков, Николай Смирнов, Михаил Бракоренко и др...

    Описание

    Сенсационное назначение на должность начальника убойного отдела ГУВД всколыхнуло всю полицейскую общественность Петербурга. Занять этот крупный пост пригласили сторон-него человека из Москвы. Но первая встреча с новым начальником заставила оперативников изумиться ещё больше прежнего. Оказывается, подполковник Маринец — это привлекательная молодая женщина! Впрочем, очень скоро новым подчинённым придётся на деле убедиться в том, что помимо выдающихся внешних данных, Александра Анатольевна обладает ещё и твёрдым характером, жёсткой хваткой и совсем не женским умом. Уже первые шаги Маринец на новом месте заставляют призадуматься многих, видевших в ней временную фигуру — ухо-дить с любимой работы ищейка никуда не собирается…

    Продолжительность: ~ 00: 45: 00 серия
    Качество видео: HDTVRip
    Видео: Xvid, 720x400 (16: 9), ~1622 Kbps
    Аудио: AC3, 2 ch, 192 Kbps, CBR
    Код:

    Общее
    Полное имя : D:Мои фильмыSvoja-Chuzhaja_1-16iz16_2015_XviD_HDTVRip1.Опасная работа.avi
    Формат : AVI
    Формат/Информация : Audio Video Interleave
    Размер файла : 555 Мбайт
    Продолжительность : 42 м.
    Общий поток : 1824 Кбит/сек
    Программа кодирования : VirtualDubMod 1.5.10.3 |www.virtualdub-fr.org|| (build 2550/release)
    Библиотека кодирования : VirtualDub build 35491/release
    Видео
    Идентификатор : 0
    Формат : MPEG-4 Visual
    Профиль формата : Advanced Simple@L5
    Параметр BVOP формата : 2
    Параметр QPel формата : Нет
    Параметр GMC формата : Без точки перехода
    Параметр матрицы формата : Default (H.263)
    Идентификатор кодека : XVID
    Идентификатор кодека/Подсказка : XviD
    Продолжительность : 42 м.
    Битрейт : 1622 Кбит/сек
    Ширина : 720 пикселей
    Высота : 400 пикселей
    Соотношение сторон : 16:9
    Частота кадров : 25, 000 кадров/сек
    Цветовое пространство : YUV
    Субдискретизация насыщенности : 4:2:0
    Битовая глубина : 8 бит
    Тип развёртки : Прогрессивная
    Метод сжатия : С потерями
    Бит/(Пиксели*Кадры) : 0.225
    Размер потока : 494 Мбайт (89%)
    Библиотека кодирования : XviD 67
    Аудио
    Идентификатор : 1
    Формат : AC-3
    Формат/Информация : Audio Coding 3
    Расширение режима : CM (complete main)
    Параметр Endianness формата : Big
    Идентификатор кодека : 2000
    Продолжительность : 42 м.
    Вид битрейта : Постоянный
    Битрейт : 192 Кбит/сек
    Каналы : 2 канала
    Расположение каналов : Front: L R
    Частота : 48, 0 КГц
    Частота кадров : 31, 250 кадров/сек (1536 spf)
    Метод сжатия : С потерями
    Размер потока : 58, 5 Мбайт (11%)
    Выравнивание : Соединение по промежуткам
    Продолжительность промежутка : 40 мс. (1, 00 видеокадр)
    Время предзагрузки промежутка : 512 мс.


    Скриншоты для ознакомления




    Онлайн видео Ищейка


    Прямая ссылка скачивания через uTorrent


    Ищейка/Своя-чужая (2015) HDTVRip (серии 1-16 из 16)
    загрузка...
    Рейтинг →
     (голосов: 1, оценка 5/5, голосовать можно 1 раз )

    Другие торренты по теме:

  • Ищейка (Своя-чужая) (2015) SATRip [H.264] (серии 1-2 из 20) (обновляемая) скачать через торрент бесплатно
  • Ищейка / Своя-чужая (2015) HDTVRip [H.264] (серии 1-16 из 16) скачать через торрент бесплатно
  • Ищейка / Своя-чужая (2015) HDTVRip [H.264 / 720p-LQ] (серии 1-16 из 16) скачать через торрент бесплатно
  • Ищейка / Своя-чужая (2015) HDTV [H.264 / 1080i-LQ] (серии 1-16 из 16) скачать через торрент бесплатно


    • Комментарии (0):

      Информация

      Информация

        Посетители, находящиеся в группе Гости, не могут оставлять комментарии в данной новости.

        ↓ Меню




        ↓ Опрос

        Вы добавили сайт в закладки?
        Да
        Нет


        Top 10 за месяц (Фильмы)