.
Авторизация | Регистрация
Хочешь лучшие торренты? Добавь свой email!
Добавить

Торрент скачать бесплатно

» » С меня хватит / Enough (2002) DVDRip [H.264] торрент скачать бесплатно



    С меня хватит / Enough (2002) DVDRip [H.264] торрент скачать бесплатно

    Опубликовал: Админ | Дата: 17-05-2016, 04:00 | Просмотров: 22

    Производство: США/Columbia Pictures Corporation, Winkler Films
    Жанр: Триллер, Боевик, Драма
    Режиссер: Майкл Эптед

    Актеры
    Дженнифер Лопез, Билл Кэмпбелл, Тесса Эллен, Джулиетт Льюис, Ден Фаттерман

    Описание

    Жизнь официантки Слим коренным образом меняется, когда она встречает богатого незнакомца Митча. Они влюбляются, женятся, покупают красивый домик и у них рождается дочка. Но восхитительной счастливой новой жизни Слим тоже приходит конец. Ее муж далеко не совершенство, и Слим узнает о его изменах. Оскорбленная поведением мужа, Слим пытается убежать от него, а ожесточившийся Митч теперь представляет смертельную угрозу ей и ее пятилетней дочери. Скрываясь от мужа, Слим решает принять серьезные меры. Она прячет дочь, а сама меняется морально и физически, намереваясь показать Митчу, что с нее довольно...

    Возраст: 16+ (зрителям, достигшим 16 лет)
    Рейтинг MPAA: PG-13 (детям до 13 лет просмотр нежелателен)
    Дата мировой премьеры: 24 мая 2002
    Дата российской премьеры: 26 сентября 2002, Каскад
    Дата выхода DVD/Blu-ray релиза: 27 февраля 2003, Columbia/Sony
    Релиз от: K.E.N(NNM-CLUB)
    Продолжительность: 01: 50: 32
    Качество видео: DVDRip
    Перевод: Дублированный, многоголосый, авторский(Ю.Живов)
    Язык субтитров: Русский, английский
    Вид субтитров: Вшитые отключаемые
    Видео: AVC, 1024x428 (2.35: 1), 25.000 fps, 2 368 Kbps (0.216 bit/pixel)
    Аудио #1: AC-3, 48.0 KHz, 6 ch, 448 Kbps, CBR (Russian) - дубляж
    Аудио #2: AC-3, 48.0 KHz, 6 ch, 448 Kbps, CBR (Russian) - авторский(Ю.Живов)
    Аудио #3: AAC LC, 48.0 KHz, 6 ch, 235 kbps (Russian) - многоголосый
    Аудио #4: AAC LC, 48.0 KHz, 6 ch, 229 kbps (English) - оригинал
    Код:

    Формат : Matroska
    Версия формата : Version 2
    Размер файла : 2, 88 Гбайт
    Продолжительность : 1 ч. 50 м.
    Общий поток : 3729 Кбит/сек
    Название фильма : Bordertown (Город на границе)
    Дата кодирования : UTC 2016-05-15 22:45:52
    Программа кодирования : mkvmerge v5.3.0 (\'I could have danced\') built on Feb 9 2012 10:38:07
    Библиотека кодирования : libebml v1.2.3 + libmatroska v1.3.0
    Attachment : Yes
    Видео
    Идентификатор : 1
    Формат : AVC
    Формат/Информация : Advanced Video Codec
    Профиль формата :High@L4.1
    Параметр CABAC формата : Да
    Параметр ReFrames формата : 12 кадров
    Идентификатор кодека : V_MPEG4/ISO/AVC
    Продолжительность : 1 ч. 50 м.
    Номинальный битрейт : 2368 Кбит/сек
    Ширина : 1024 пикселя
    Высота : 428 пикселей
    Соотношение сторон : 2, 40:1
    Режим частоты кадров : Постоянный
    Частота кадров : 25, 000 кадров/сек
    Цветовое пространство : YUV
    Субдискретизация насыщенности : 4:2:0
    Битовая глубина : 8 бит
    Тип развёртки : Прогрессивная
    Бит/(Пиксели*Кадры) : 0.216
    Библиотека кодирования : x264 core 146 r2538 121396c
    Настройки программы : cabac=1/ref=12/deblock=1:-3:-3/analyse=0x3:0x133/me=umh/subme=11/psy=1/psy_rd=1.00:0.15/mixed_ref=1/me_range=32/chroma_me=1/trellis=2/8x8dct=1/cqm=0/deadzone=21, 11/fast_pskip=0/chroma_qp_offset=-3/threads=12/lookahead_threads=2/sliced_threads=0/nr=0/decimate=0/interlaced=0/bluray_compat=0/constrained_intra=0/bframes=8/b_pyramid=2/b_adapt=2/b_bias=0/direct=3/weightb=1/open_gop=0/weightp=2/keyint=240/keyint_min=23/scenecut=40/intra_refresh=0/rc=2pass/mbtree=0/bitrate=2368/ratetol=1.0/qcomp=0.60/qpmin=0/qpmax=69/qpstep=4/cplxblur=20.0/qblur=0.5/ip_ratio=1.40/pb_ratio=1.30/aq=1:0.70
    Default : Да
    Forced : Нет
    Аудио #1
    Идентификатор : 2
    Формат : AC-3
    Формат/Информация : Audio Coding 3
    Расширение режима : CM (complete main)
    Параметр Endianness формата : Big
    Идентификатор кодека : A_AC3
    Продолжительность : 1 ч. 50 м.
    Вид битрейта : Постоянный
    Битрейт : 448 Кбит/сек
    Каналы : 6 каналов
    Расположение каналов : Front: L C R, Side: L R, LFE
    Частота : 48, 0 КГц
    Битовая глубина : 16 бит
    Метод сжатия : С потерями
    Размер потока : 354 Мбайт (12%)
    Заголовок : дубляж
    Язык : Russian
    Default : Да
    Forced : Нет
    Аудио #2
    Идентификатор : 3
    Формат : AC-3
    Формат/Информация : Audio Coding 3
    Расширение режима : CM (complete main)
    Параметр Endianness формата : Big
    Идентификатор кодека : A_AC3
    Продолжительность : 1 ч. О таком странном сюжете не догадывалась даже ВиаГра. 50 м.
    Вид битрейта : Постоянный
    Битрейт : 448 Кбит/сек
    Каналы : 6 каналов
    Расположение каналов : Front: L C R, Side: L R, LFE
    Частота : 48, 0 КГц
    Битовая глубина : 16 бит
    Метод сжатия : С потерями
    Размер потока : 354 Мбайт (12%)
    Заголовок : авторский Ю.Живов
    Язык : Russian
    Default : Нет
    Forced : Нет
    Аудио #3
    Идентификатор : 4
    Формат : AAC
    Формат/Информация : Advanced Audio Codec
    Профиль формата : LC
    Идентификатор кодека : A_AAC
    Продолжительность : 1 ч. 50 м.
    Каналы : 6 каналов
    Расположение каналов : Front: L C R, Side: L R, LFE
    Частота : 48, 0 КГц
    Метод сжатия : С потерями
    Заголовок : Многоголосный
    Язык : Russian
    Default : Нет
    Forced : Нет
    Аудио #4
    Идентификатор : 5
    Формат : AAC
    Формат/Информация : Advanced Audio Codec
    Профиль формата : LC
    Идентификатор кодека : A_AAC
    Продолжительность : 1 ч. 50 м.
    Каналы : 6 каналов
    Расположение каналов : Front: L C R, Side: L R, LFE
    Частота : 48, 0 КГц
    Метод сжатия : С потерями
    Заголовок : Английский
    Язык : English
    Default : Нет
    Forced : Нет
    Текст #1
    Идентификатор : 6
    Формат : UTF-8
    Идентификатор кодека : S_TEXT/UTF8
    Идентификатор кодека/Информация : UTF-8 Plain Text
    Язык : English
    Default : Нет
    Forced : Нет
    Текст #2
    Идентификатор : 7
    Формат : UTF-8
    Идентификатор кодека : S_TEXT/UTF8
    Идентификатор кодека/Информация : UTF-8 Plain Text
    Язык : Russian
    Default : Нет
    Forced : Нет
    Меню
    00:00:00.000 : :Chapter 01
    00:02:40.560 : :Chapter 02
    00:04:23.880 : :Chapter 03
    00:06:38.480 : :Chapter 04
    00:09:43.600 : :Chapter 05
    00:12:02.560 : :Chapter 06
    00:13:39.240 : :Chapter 07
    00:17:18.560 : :Chapter 08
    00:22:52.360 : :Chapter 09
    00:25:50.840 : :Chapter 10
    00:27:27.640 : :Chapter 11
    00:28:40.880 : :Chapter 12
    00:34:40.320 : :Chapter 13
    00:39:52.720 : :Chapter 14
    00:45:28.840 : :Chapter 15
    00:48:07.720 : :Chapter 16
    00:52:14.920 : :Chapter 17
    00:54:06.480 : :Chapter 18
    00:56:57.080 : :Chapter 19
    00:59:47.720 : :Chapter 20
    01:02:44.640 : :Chapter 21
    01:06:54.520 : :Chapter 22
    01:12:04.600 : :Chapter 23
    01:18:55.000 : :Chapter 24
    01:30:42.080 : :Chapter 25
    01:37:34.560 : :Chapter 26
    01:42:03.480 : :Chapter 27
    01:44:53.920 : :Chapter 28


    Скриншоты для ознакомления




    Онлайн видео С меня хватит


    Прямая ссылка скачивания через uTorrent


    С меня хватит/Enough (2002) DVDRip [H.264]
    загрузка...
    Рейтинг →
     (голосов: 1, оценка 3/5, голосовать можно 1 раз )

    Другие торренты по теме:

  • С меня хватит! / Falling Down (1993) BDRip [h264] AVO скачать через торрент бесплатно
  • С меня хватит! / Falling Down (1993) AC3 5.1 [hand made] скачать через торрент бесплатно
  • С меня хватит! / Falling Down (1993) HDRip
  • С меня хватит! / Falling Down (1993) BDRip [H.265 / 1080p]
  • С меня хватит! / Falling Down (1993) HDRip


    • Комментарии (0):

      Информация

      Информация

        Посетители, находящиеся в группе Гости, не могут оставлять комментарии в данной новости.

        ↓ Меню




        ↓ Опрос

        Вы добавили сайт в закладки?
        Да
        Нет


        Top 10 за месяц (Фильмы)