.
Авторизация | Регистрация
Хочешь лучшие торренты? Добавь свой email!
Добавить

Торрент скачать бесплатно

» » Карантин / Изоляция / Containment (2016) WEB-DLRip [H.264 / 1080р-LQ] (сезон 1, серии 1-4 из 13) NewStudio (обновляемая) торрент скачать бесплатно



    Карантин / Изоляция / Containment (2016) WEB-DLRip [H.264 / 1080р-LQ] (сезон 1, серии 1-4 из 13) NewStudio (обновляемая) торрент скачать бесплатно

    Опубликовал: Админ | Дата: 14-05-2016, 04:00 | Просмотров: 44

    Производство: США
    Жанр: Драма
    Режиссер: Чарльз Бисон, Крис Грисмер

    Актеры
    Дэвид Гяси, Кристен Гутоски, Клаудия Блэк, Джордж Янг, Майлз Долеак, Надин Левингтон, Йоханс Майлс

    Описание

    Сюжет рассказывает о вспышке таинственной и смертельной эпидемии в Атланте, из-за которой часть города закрывается на карантин, в то время как местные и федеральные чиновники отчаянно ищут лекарство…

    Дата мировой премьеры: 19 апреля 2016
    Продолжительность: ~00: 42: 00 серия
    Качество видео: WEB-DL
    Перевод: Многоголосый закадровый, профессиональный NewStudio
    Реклама : присутствуют аудио и видео вставки рекламы
    Видео : AVC/H.264, 1912x1072, ~5 049 Kbps, 23.976 fps
    Аудио rus : AC3, 6 ch, 384 kbps, CBR - многоголосый закадровый
    Аудио eng : AC3, 6 ch, 384 kbps, CBR - оригинал
    Код:

    Containment.s01e01.WEBDL.1080p.NewStudio.TV.mkv
    Format : Matroska
    Format version : Version 4/Version 2
    File size : 1.72 GiB
    Duration : 42mn 17s
    Overall bit rate : 5 819 Kbps
    Encoded date : UTC 2016-04-21 23:06:25
    Writing application : mkvmerge v8.2.0 (\'World of Adventure\') 32bit
    Writing library : libebml v1.3.1 + libmatroska v1.4.2
    Video
    ID : 1
    Format : AVC
    Format/Info : Advanced Video Codec
    Format profile : High@L4
    Format settings, CABAC : Yes
    Format settings, ReFrames : 4 frames
    Codec ID : V_MPEG4/ISO/AVC
    Duration : 42mn 17s
    Bit rate : 5 049 Kbps
    Width : 1 912 pixels
    Height : 1 072 pixels
    Display aspect ratio : 16:9
    Frame rate mode : Constant
    Frame rate : 23.976 (23976/1000) fps
    Color space : YUV
    Chroma subsampling : 4:2:0
    Bit depth : 8 bits
    Scan type : Progressive
    Bits/(Pixel*Frame) : 0.103
    Stream size : 1.49 GiB (87%)
    Title : Containment.S01E01.1080p.WEB-DL.DD5.1.H264-RARBG
    Language : English
    Default : Yes
    Forced : No
    Color range : Limited
    Color primaries : BT.709
    Transfer characteristics : BT.709
    Matrix coefficients : BT.709
    Audio #1
    ID : 2
    Format : AC-3
    Format/Info : Audio Coding 3
    Mode extension : CM (complete main)
    Format settings, Endianness : Big
    Codec ID : A_AC3
    Duration : 42mn 17s
    Bit rate mode : Constant
    Bit rate : 384 Kbps
    Channel(s) : 6 channels
    Channel positions : Front: L C R, Side: L R, LFE
    Sampling rate : 48.0 KHz
    Frame rate : 31.250 fps (1536 spf)
    Compression mode : Lossy
    Stream size : 116 MiB (7%)
    Title : NewStudio.TV
    Language : Russian
    Default : Yes
    Forced : No
    Audio #2
    ID : 3
    Format : AC-3
    Format/Info : Audio Coding 3
    Mode extension : CM (complete main)
    Format settings, Endianness : Big
    Codec ID : A_AC3
    Duration : 42mn 17s
    Bit rate mode : Constant
    Bit rate : 384 Kbps
    Channel(s) : 6 channels
    Channel positions : Front: L C R, Side: L R, LFE
    Sampling rate : 48.0 KHz
    Frame rate : 31.250 fps (1536 spf)
    Compression mode : Lossy
    Stream size : 116 MiB (7%)
    Language : English
    Default : No
    Forced : No


    Скриншоты для ознакомления




    Онлайн видео Карантин


    Прямая ссылка скачивания через uTorrent


    Карантин/Изоляция/Containment (2016) WEB-DLRip [H.264/1080р-LQ] (сезон 1, серии 1-4 из 13) NewStudio (обновляемая)
    загрузка...
    Рейтинг →
     (голосов: 1, оценка 3/5, голосовать можно 1 раз )

    Другие торренты по теме:

  • Карантин / Изоляция / Containment (2016) WEB-DL[H.264 / 720p-LQ] (сезон 1, серии 1 из 13) OMSKBIRD records (обновляемая)
  • Карантин / Изоляция / Containment (2016) WEB-DLRip (сезон 1, серии 1 из 13) OMSKBIRD records (обновляемая)
  • Карантин / Изоляция / Containment (2016) WEB-DLRip [H.264 / 1080p-LQ] (сезон 1, серии 1-12 из 13) BaibaKo (обновляемая)


    • Комментарии (0):

      Информация

      Информация

        Посетители, находящиеся в группе Гости, не могут оставлять комментарии в данной новости.

        ↓ Меню




        ↓ Опрос

        Вы добавили сайт в закладки?
        Да
        Нет


        Top 10 за месяц (Фильмы)