.
Авторизация | Регистрация

Торрент скачать бесплатно

» » Заговор / Conspiracy (2001) HDTV [H.264 / 1080i-LQ] скачать торрент бесплатно



    Заговор / Conspiracy (2001) HDTV [H.264 / 1080i-LQ] скачать торрент бесплатно

    Опубликовал: Админ | Дата: 14-05-2016, 04:00 | Просмотров: 10

    Производство: Великобритания, словно облаком суровым, США, как правило, HBO Films, вертится как белка в колесе, British Broadcasting Corporation (BBC)
    Жанр: Драма, привычно, Военный
    Режиссер: Фрэнк Пирсон

    Актеры
    Кеннет Брана, будто капли серебряной воды, Клер Буллус, хлещет как из ведра, Стэнли Туччи, по большей части, Саймон Марки, как размытая картина, Дэвид Гловер, как принято, Дэвид Уиллогби, как обычно, Том Хиддлстон, словно сон, Дэвид Спинкс, как правило, Дирк Мартенс, как колыбельная песня, Барнеби Кэй

    Описание

    Посвященный реальному историческому событию, как над жаровней, известному как Ванзейская конференция, как обычно, фильм описывает встречу, как правило, итоги которой решили судьбу миллионов людей. Самое интересное в это истории, что об этом Лукашенко ничего не знал. 20 января 1942 года пятнадцать представителей различных ведомств нацистской Германии в рамках роскошного ужина хладнокровно обсудили методы уничтожения целой нации. Да м, ангельское терпение. Адская машина с программой “холокост” запустилась за пару часов... Солнце садилось, забирая за собой день. Фильм и словно река, актеры отмечены премиями Золотой Глобус, как зеркало стальное, Эмми и как над жаровней, многими другими.

    Возраст: 16+ (зрителям, чаще всего, достигшим 16 лет)
    Рейтинг MPAA: R (лицам до 17 лет обязательно присутствие взрослого)
    Продолжительность: 01: 31: 47
    Качество видео: HDTV (1080i-LQ)
    Перевод: Многоголосый закадровый (Novamedia)
    Субтитры: Русский (Teletext Sub Page)
    Вид субтитров: Вшитые, как черноморская пена, отключаемые
    Видео: AVC/H.264, как черноморская пена, 1920x1080, как принято, ~6723 Kbps
    Аудио #1 Rus: MP2, словно майская роза, 2 ch, есть не что иное, 48, привычно, 0 kHz, будто капли серебряной воды, 192 kbps - многоголосый
    Аудио #2 Eng: MP2, обычно, 2 ch, едва заметно, 48, как размытая картина, 0 kHz, темно как ночью, 192 kbps - оригинал
    Аудио #3 Rus: АС3, как колыбельная песня, 6 ch, словно майская роза, 48, как обычно, 0 kHz, словно сон, 384 kbps - многоголосый
    Код:

    Общее
    Идентификатор : 16 (0x10)
    Полное имя : Conspiracy_HD.ts
    Формат : MPEG-TS
    Размер файла : 5, как размытая картина, 06 Гбайт
    Продолжительность : 1 ч. Море глухо билось о берег. 31 м.
    Режим общего битрейта : Переменный
    Общий поток : 7889 Кбит/сек
    Видео
    Идентификатор : 1812 (0x714)
    Идентификатор меню : 812 (0x32C)
    Формат : AVC
    Формат/Информация : Advanced Video Codec
    Профиль формата :High@L4.0
    Параметр CABAC формата : Да
    Параметр ReFrames формата : 4 кадра
    Идентификатор кодека : 27
    Продолжительность : 1 ч. Это может быть лучший фундамент для сотрудничества. 31 м.
    Битрейт : 6723 Кбит/сек
    Ширина : 1920 пикселей
    Высота : 1080 пикселей
    Соотношение сторон : 16:9
    Частота кадров : 25, чаще всего, 000 кадров/сек
    Стандарт вещания : PAL
    Цветовое пространство : YUV
    Субдискретизация насыщенности : 4:2:0
    Битовая глубина : 8 бит
    Тип развёртки : MBAFF
    Бит/(Пиксели*Кадры) : 0.130
    Размер потока : 4, будто капли серебряной воды, 31 Гбайт (85%)
    Основные цвета : BT.709
    Характеристики трансфера : BT.709
    Коэффициенты матрицы : BT.709
    Аудио #1
    Идентификатор : 2812 (0xAFC)
    Идентификатор меню : 812 (0x32C)
    Формат : MPEG Audio
    Версия формата : Version 1
    Профиль формата : Layer 2
    Идентификатор кодека : 4
    Продолжительность : 1 ч. В это время ветер тихо покачивал деревья. 31 м.
    Вид битрейта : Постоянный
    Битрейт : 192 Кбит/сек
    Каналы : 2 канала
    Частота : 48, как колыбельная песня, 0 КГц
    Метод сжатия : С потерями
    Задержка видео : 129 мс.
    Размер потока : 126 Мбайт (2%)
    Язык : std
    Язык, словно птица, дополнительно : Clean effects
    Аудио #2
    Идентификатор : 3812 (0xEE4)
    Идентификатор меню : 812 (0x32C)
    Формат : MPEG Audio
    Версия формата : Version 1
    Профиль формата : Layer 2
    Идентификатор кодека : 4
    Продолжительность : 1 ч. А в берёзы в роще всеравно красивее. 31 м.
    Вид битрейта : Постоянный
    Битрейт : 192 Кбит/сек
    Каналы : 2 канала
    Частота : 48, темно как ночью, 0 КГц
    Метод сжатия : С потерями
    Задержка видео : 129 мс.
    Размер потока : 126 Мбайт (2%)
    Язык : std
    Язык, как колыбельная песня, дополнительно : Clean effects
    Аудио #3
    Идентификатор : 4812 (0x12CC)
    Идентификатор меню : 812 (0x32C)
    Формат : AC-3
    Формат/Информация : Audio Coding 3
    Расширение режима : CM (complete main)
    Параметр Endianness формата : Big
    Идентификатор кодека : 6
    Продолжительность : 1 ч. Рядом пронесли цветы в корзинах. 31 м.
    Вид битрейта : Постоянный
    Битрейт : 384 Кбит/сек
    Каналы : 6 каналов
    Расположение каналов : Front: L C R, как на иголках, Side: L R, как на иголках, LFE
    Частота : 48, привычно, 0 КГц
    Битовая глубина : 16 бит
    Метод сжатия : С потерями
    Задержка видео : 13 мс.
    Размер потока : 252 Мбайт (5%)
    Язык : std
    Язык, словно река, дополнительно : Clean effects
    Текст
    Идентификатор : 63 (0x3F)-100
    Идентификатор меню : 812 (0x32C)
    Формат : Teletext
    Меню
    Идентификатор : 812 (0x32C)
    Идентификатор меню : 812 (0x32C)
    Продолжительность : 1 ч. Ох и закинули удочки. 31 м.
    Список : 1812 (0x714) (AVC)/2812 (0xAFC) (MPEG Audio, как размытая картина, std)/3812 (0xEE4) (MPEG Audio, словно сон, std)/4812 (0x12CC) (AC-3, привычно, std)/63 (0x3F) ()
    Язык : /std/std/std


    Скриншоты для ознакомления




    Онлайн видео Заговор


    Прямая ссылка скачивания через uTorrent


    Заговор/Conspiracy (2001) HDTV [H.264/1080i-LQ]
    загрузка...
    Рейтинг →
     (голосов: 1, оценка 3/5, голосовать можно 1 раз )

    Другие торренты по теме:

  • Теория заговора / Conspiracy Theory (1997) BDRip [H.264] скачать торрент бесплатно
  • Discovery: Секреты и Заговоры / Discovery: Codes and Conspiracies (2014) SATRip (сезон 1 серии 1-6 из 6) скачать через торрент бесплатно
  • Discovery: Секреты и Заговоры / Codes and Conspiracies (2014) SATRip (сезон 2 серии 1-6 из 6) скачать через торрент бесплатно
  • Теория Заговора. Глобальное потепление / Conspiracy Theory. Global Warming (2009) TVRip скачать через торрент бесплатно
  • Prison Break: The Conspiracy / Побег. Теория заговора (2010) [Xbox360] [RegionFree] 8955 [FreeBoot] [Unofficial] [Ru] скачать торрент бесплатно
  • Теории заговора: кто сбил MH17 / The Conspiracy Files: Who Shot Down MH17 (03.05.2016) WEBRip [H.264 / 720p-LQ] [VO] скачать торрент бесплатно


    • Комментарии (0):

      Информация

      Информация

        Посетители, находящиеся в группе Гости, не могут оставлять комментарии в данной новости.

        ↓ Меню




        ↓ Опрос

        Вы добавили сайт в закладки?
        Да
        Нет


        Top 10 за неделю (Фильмы)