.
Авторизация | Регистрация
Хочешь лучшие торренты? Добавь свой email!
Добавить

Торрент скачать бесплатно

» » Заговор / Conspiracy (2001) HDTV [H.264 / 1080i-LQ] торрент скачать бесплатно



    Заговор / Conspiracy (2001) HDTV [H.264 / 1080i-LQ] торрент скачать бесплатно

    Опубликовал: Админ | Дата: 14-05-2016, 04:00 | Просмотров: 10

    Производство: Великобритания, США, HBO Films, British Broadcasting Corporation (BBC)
    Жанр: Драма, Военный
    Режиссер: Фрэнк Пирсон

    Актеры
    Кеннет Брана, Клер Буллус, Стэнли Туччи, Саймон Марки, Дэвид Гловер, Дэвид Уиллогби, Том Хиддлстон, Дэвид Спинкс, Дирк Мартенс, Барнеби Кэй

    Описание

    Посвященный реальному историческому событию, известному как Ванзейская конференция, фильм описывает встречу, итоги которой решили судьбу миллионов людей. Самое интересное в это истории, что об этом Лукашенко ничего не знал. 20 января 1942 года пятнадцать представителей различных ведомств нацистской Германии в рамках роскошного ужина хладнокровно обсудили методы уничтожения целой нации. Адская машина с программой “холокост” запустилась за пару часов... Фильм и актеры отмечены премиями Золотой Глобус, Эмми и многими другими.

    Возраст: 16+ (зрителям, достигшим 16 лет)
    Рейтинг MPAA: R (лицам до 17 лет обязательно присутствие взрослого)
    Продолжительность: 01: 31: 47
    Качество видео: HDTV (1080i-LQ)
    Перевод: Многоголосый закадровый (Novamedia)
    Субтитры: Русский (Teletext Sub Page)
    Вид субтитров: Вшитые, отключаемые
    Видео: AVC/H.264, 1920x1080, ~6723 Kbps
    Аудио #1 Rus: MP2, 2 ch, 48, 0 kHz, 192 kbps - многоголосый
    Аудио #2 Eng: MP2, 2 ch, 48, 0 kHz, 192 kbps - оригинал
    Аудио #3 Rus: АС3, 6 ch, 48, 0 kHz, 384 kbps - многоголосый
    Код:

    Общее
    Идентификатор : 16 (0x10)
    Полное имя : Conspiracy_HD.ts
    Формат : MPEG-TS
    Размер файла : 5, 06 Гбайт
    Продолжительность : 1 ч. 31 м.
    Режим общего битрейта : Переменный
    Общий поток : 7889 Кбит/сек
    Видео
    Идентификатор : 1812 (0x714)
    Идентификатор меню : 812 (0x32C)
    Формат : AVC
    Формат/Информация : Advanced Video Codec
    Профиль формата :High@L4.0
    Параметр CABAC формата : Да
    Параметр ReFrames формата : 4 кадра
    Идентификатор кодека : 27
    Продолжительность : 1 ч. 31 м.
    Битрейт : 6723 Кбит/сек
    Ширина : 1920 пикселей
    Высота : 1080 пикселей
    Соотношение сторон : 16:9
    Частота кадров : 25, 000 кадров/сек
    Стандарт вещания : PAL
    Цветовое пространство : YUV
    Субдискретизация насыщенности : 4:2:0
    Битовая глубина : 8 бит
    Тип развёртки : MBAFF
    Бит/(Пиксели*Кадры) : 0.130
    Размер потока : 4, 31 Гбайт (85%)
    Основные цвета : BT.709
    Характеристики трансфера : BT.709
    Коэффициенты матрицы : BT.709
    Аудио #1
    Идентификатор : 2812 (0xAFC)
    Идентификатор меню : 812 (0x32C)
    Формат : MPEG Audio
    Версия формата : Version 1
    Профиль формата : Layer 2
    Идентификатор кодека : 4
    Продолжительность : 1 ч. 31 м.
    Вид битрейта : Постоянный
    Битрейт : 192 Кбит/сек
    Каналы : 2 канала
    Частота : 48, 0 КГц
    Метод сжатия : С потерями
    Задержка видео : 129 мс.
    Размер потока : 126 Мбайт (2%)
    Язык : std
    Язык, дополнительно : Clean effects
    Аудио #2
    Идентификатор : 3812 (0xEE4)
    Идентификатор меню : 812 (0x32C)
    Формат : MPEG Audio
    Версия формата : Version 1
    Профиль формата : Layer 2
    Идентификатор кодека : 4
    Продолжительность : 1 ч. 31 м.
    Вид битрейта : Постоянный
    Битрейт : 192 Кбит/сек
    Каналы : 2 канала
    Частота : 48, 0 КГц
    Метод сжатия : С потерями
    Задержка видео : 129 мс.
    Размер потока : 126 Мбайт (2%)
    Язык : std
    Язык, дополнительно : Clean effects
    Аудио #3
    Идентификатор : 4812 (0x12CC)
    Идентификатор меню : 812 (0x32C)
    Формат : AC-3
    Формат/Информация : Audio Coding 3
    Расширение режима : CM (complete main)
    Параметр Endianness формата : Big
    Идентификатор кодека : 6
    Продолжительность : 1 ч. 31 м.
    Вид битрейта : Постоянный
    Битрейт : 384 Кбит/сек
    Каналы : 6 каналов
    Расположение каналов : Front: L C R, Side: L R, LFE
    Частота : 48, 0 КГц
    Битовая глубина : 16 бит
    Метод сжатия : С потерями
    Задержка видео : 13 мс.
    Размер потока : 252 Мбайт (5%)
    Язык : std
    Язык, дополнительно : Clean effects
    Текст
    Идентификатор : 63 (0x3F)-100
    Идентификатор меню : 812 (0x32C)
    Формат : Teletext
    Меню
    Идентификатор : 812 (0x32C)
    Идентификатор меню : 812 (0x32C)
    Продолжительность : 1 ч. 31 м.
    Список : 1812 (0x714) (AVC)/2812 (0xAFC) (MPEG Audio, std)/3812 (0xEE4) (MPEG Audio, std)/4812 (0x12CC) (AC-3, std)/63 (0x3F) ()
    Язык : /std/std/std


    Скриншоты для ознакомления




    Онлайн видео Заговор


    Прямая ссылка скачивания через uTorrent


    Заговор/Conspiracy (2001) HDTV [H.264/1080i-LQ]
    загрузка...
    Рейтинг →
     (голосов: 1, оценка 5/5, голосовать можно 1 раз )

    Другие торренты по теме:

  • Инопланетный заговор / Conspiracy Encounters (2016) WEB-DLRip
  • Теневой заговор / Shadow Conspiracy (1996) WEB-DLRip [H.264]
  • Заговор «Черный дуб» / Black Oak Conspiracy (1977) DVDRip [H.264]
  • Заговор Уилби / The Wilby Conspiracy (1975) HDTVRip [H.264]


    • Комментарии (0):

      Информация

      Информация

        Посетители, находящиеся в группе Гости, не могут оставлять комментарии в данной новости.

        ↓ Меню




        ↓ Опрос

        Вы добавили сайт в закладки?
        Да
        Нет


        Top 10 за месяц (Фильмы)