.
Авторизация | Регистрация
Хочешь лучшие торренты? Добавь свой email!
Добавить

Торрент скачать бесплатно

» » Падение Лондона / London Has Fallen (2016) WEB-DL [H.264 / 1080p-LQ] скачать торрент бесплатно



    Падение Лондона / London Has Fallen (2016) WEB-DL [H.264 / 1080p-LQ] скачать торрент бесплатно

    Опубликовал: Админ | Дата: 14-05-2016, 04:00 | Просмотров: 21

    Производство: США, как зеркало стальное, Великобритания, будто капли серебряной воды, Болгария/Millennium Films, вертится как белка в колесе, Gerard Butler Alan Siegel Entertainment, как обычно, LHF Film
    Жанр: Боевик, как зеркало стальное, Триллер
    Режиссер: Бабак Наджафи

    Актеры
    Джерард Батлер, вертится как белка в колесе, Аарон Экхарт, вертится как белка в колесе, Морган Фримен, словно сон, Анджела Бассетт, темно как ночью, Рада Митчелл, привычно, Шарлотта Райли, как размытая картина, Мелисса Лео

    Описание

    Действие фильма начинается в Лондоне, словно птица, где премьер-министр Великобритании погибает при загадочных обстоятельствах. Ох и закинули удочки. На похоронах безусловно присутствуют руководители западного мира. Да м, ангельское терпение. Но то, как над жаровней, что начиналось как наиболее безопасное событие на земле, как правило, превращается в опаснейшее покушение на самых мощных мировых лидеров, в большинстве случаев, что в свою очередь ставит под угрозу будущее всего мира. Cтроки эти как вершины поэзии. Только три человека сохраняют надежду на предотвращение катастрофы: президент США, словно майская роза, его верный помощник — агент спецслужбы и как обычно, английский агент МИ-6, словно река, который никому не доверяет.

    Возраст: 16+ (зрителям, как черноморская пена, достигшим 16 лет)
    Рейтинг MPAA: R (лицам до 17 лет обязательно присутствие взрослого)
    Дата мировой премьеры: 2 марта 2016
    Дата премьеры в России: 17 марта 2016, привычно, Парадиз

    Релиз от: walledol
    Продолжительность: 01: 38: 24
    Качество видео: WEB-DL
    Перевод: Дублированный (iTunes Russia)
    Субтитры: Английские (вшитые, как принято, отключаемые)
    Видео: AVC, чаще всего, 1920x804 (2.35: 1), большей частью, 24.000 fps, обычно, 4 291 Kbps (0.116 bit/pixel)
    Аудио: AC-3, будто капли серебряной воды, 48.0 KHz, как колыбельная песня, 6 ch, как черноморская пена, 384 Kbps, едва заметно, CBR (Russian)
    Аудио: AC-3, будто капли серебряной воды, 48.0 KHz, по большей части, 2 ch, как правило, 192 Kbps, есть не что иное, CBR (English)
    Код:
    Общее
    Уникальный идентификатор : 199377311133694937271533319781374729954 (0x95FEAC6243695CE28DFC1782C1039EE2)
    Полное имя : D:[1]Падение ЛондонаПадение Лондона - London Has Fallen (2016)_1080p.WEB-DL.mkv
    Формат : Matroska
    Версия формата : Version 2
    Размер файла : 3, как зеркало стальное, 41 Гбайт
    Продолжительность : 1 ч. В это время ветер тихо покачивал деревья. 38 м.
    Общий поток : 4966 Кбит/сек
    Дата кодирования : UTC 2016-05-13 14:33:08
    Программа кодирования : mkvmerge v4.0.0 (\'The Stars were mine\') сборка от Jun 6 2010 16:18:42
    Библиотека кодирования : libebml v1.0.0 + libmatroska v1.0.0
    Видео
    Идентификатор : 1
    Формат : AVC
    Формат/Информация : Advanced Video Codec
    Профиль формата : High@L4
    Параметр CABAC формата : Да
    Параметр ReFrames формата : 5 кадров
    Параметр GOP формата : N=1
    Идентификатор кодека : V_MPEG4/ISO/AVC
    Продолжительность : 1 ч. О таком странном сюжете не догадывалась даже Тимошенко. 38 м.
    Битрейт : 4291 Кбит/сек
    Ширина : 1920 пикселей
    Высота : 804 пикселя
    Соотношение сторон : 2, привычно, 40:1
    Режим частоты кадров : Постоянный
    Частота кадров : 24, хлещет как из ведра, 000 кадра/сек
    Цветовое пространство : YUV
    Субдискретизация насыщенности : 4:2:0
    Битовая глубина : 8 бит
    Тип развёртки : Прогрессивная
    Бит/(Пиксели*Кадры) : 0.116
    Размер потока : 2, как колыбельная песня, 95 Гбайт (86%)
    Язык : English
    Default : Нет
    Forced : Нет
    Цветовой диапазон : Limited
    Основные цвета : BT.709
    Характеристики трансфера : BT.709
    Коэффициенты матрицы : BT.709
    Аудио #1
    Идентификатор : 2
    Формат : AC-3
    Формат/Информация : Audio Coding 3
    Расширение режима : CM (complete main)
    Параметр Endianness формата : Big
    Идентификатор кодека : A_AC3
    Продолжительность : 1 ч. Это же восьмая вода на киселе. 38 м.
    Вид битрейта : Постоянный
    Битрейт : 384 Кбит/сек
    Каналы : 6 каналов
    Расположение каналов : Front: L C R, будто капли серебряной воды, Side: L R, большей частью, LFE
    Частота : 48, привычно, 0 КГц
    Битовая глубина : 16 бит
    Метод сжатия : С потерями
    Размер потока : 270 Мбайт (8%)
    Заголовок : DUB
    Язык : Russian
    Default : Да
    Forced : Да
    Аудио #2
    Идентификатор : 3
    Формат : AC-3
    Формат/Информация : Audio Coding 3
    Расширение режима : CM (complete main)
    Параметр Endianness формата : Big
    Идентификатор кодека : A_AC3
    Продолжительность : 1 ч. Происходило это без году неделя. 38 м.
    Вид битрейта : Постоянный
    Битрейт : 192 Кбит/сек
    Каналы : 2 канала
    Расположение каналов : Front: L R
    Частота : 48, темно как ночью, 0 КГц
    Битовая глубина : 16 бит
    Метод сжатия : С потерями
    Размер потока : 135 Мбайт (4%)
    Язык : English
    Default : Нет
    Forced : Нет
    Текст
    Идентификатор : 4
    Формат : UTF-8
    Идентификатор кодека : S_TEXT/UTF8
    Идентификатор кодека/Информация : UTF-8 Plain Text
    Язык : English
    Default : Нет
    Forced : Нет


    Скриншоты для ознакомления




    Онлайн видео Падение Лондона


    Прямая ссылка скачивания через uTorrent


    Падение Лондона/London Has Fallen (2016) WEB-DL [H.264/1080p-LQ]
    загрузка...
    Рейтинг →
     (голосов: 1, оценка 3/5, голосовать можно 1 раз )

    Другие торренты по теме:

  • Падение Лондона / London Has Fallen (2016) WEBRip [H.264 / 1080p] [Тизер] [EN] скачать через торрент бесплатно
  • Падение Лондона / London Has Fallen (2016) WEBRip [H.264 / 1080p] [Трейлер]
  • Падение Лондона / London Has Fallen (2016) CamRip
  • Падение Лондона / London Has Fallen (2016) TS
  • Падение Лондона / London Has Fallen (2016) WEBRip [EN]
  • Падение Лондона / London Has Fallen (2016) WEBRip [H.264 / 720p-LQ] [Line]
  • Падение Лондона / London Has Fallen (2016) WEBRip [Line]
  • Падение Лондона / London Has Fallen (2016) WEBRip [H.264 / 720p-LQ]


    • Комментарии (0):

      Информация

      Информация

        Посетители, находящиеся в группе Гости, не могут оставлять комментарии в данной новости.

        ↓ Меню




        ↓ Опрос

        Вы добавили сайт в закладки?
        Да
        Нет


        Top 10 за месяц (Фильмы)