.
Авторизация | Регистрация
Хочешь лучшие торренты? Добавь свой email!
Добавить

Торрент скачать бесплатно

» » По законам военного времени (2016) SATRip [H.264] (1-8 серии из 12) (Обновляемая) торрент скачать бесплатно



    По законам военного времени (2016) SATRip [H.264] (1-8 серии из 12) (Обновляемая) торрент скачать бесплатно

    Опубликовал: Админ | Дата: 13-05-2016, 04:00 | Просмотров: 41

    Производство: Россия, Украина/StarMedia
    Жанр: Военный, Детектив
    Режиссер: Максим Мехеда

    Актеры
    Евгений Воловенко, Екатерина Климова, Максим Дрозд, Сергей Сосновский, Валерий Сковронский, Игорь Петрусенко, Андрей Саминин, Пётр Крылов , Виталий Салий, Игорь Рубашкин, Валерий Шалыга, Михаил Жонин, Александра Сизоненко, Александр Панкратов-Чёрный

    Описание

    Июль 1941 года. Фашисты рвутся к Киеву. Самое интересное в это истории, что об этом Жириновский ничего не знал. Обстановка в городе накаляется с каждым днем, что добавляет работы лучшему следователю киевской военной прокуратуры Ивану Рокотову. Из Москвы неожиданно прибывает заместитель главного военного прокурора РККА Николай Мирский. Он создает особый отдел в военной прокуратуре фронта, в который входят Рокотов и бывший следователь Днепропетровского УГРО Светлана Елагина. Рокотову и Елагиной придется расследовать особо важные дела, действуя как на передовой, в Киевском укрепрайоне, так и в самом городе, где активизировавшийся преступный мир начинает объединяться с просачивающимися в город немецкими диверсантами. Да и некоторые представители Советской власти не прочь нагреть руки на страданиях народа.

    Возраст: 12+ (зрителям, достигшим 12 лет)
    Дата мировой премьеры: 09 мая 2016
    Продолжительность: ~00: 47: 00 серия
    Качество видео: SATRip
    Субтитры: Украинские неотключаемые
    Видео: AVC/H.264, 720х400, ~1650 Kbps
    Аудио: AC3, 2 ch, Kbps, CBR
    Код:

    Общее
    Уникальный идентификатор : 201527380512300728320397980979902879922 (0x979CC2FD15840236BD4489FFB67918B2)
    Полное имя : D:По законам военного времени1 серия_По законам военного времени_rip by_Aleksan55.mkv
    Формат : Matroska
    Версия формата : Version 2
    Размер файла : 623 Мбайт
    Продолжительность : 47 м.
    Общий поток : 1844 Кбит/сек
    Дата кодирования : UTC 2016-05-10 22:37:23
    Программа кодирования : mkvmerge v7.8.0 (\'River Man\') 32bit built on Apr 3 2015 12:11:22
    Библиотека кодирования : libebml v1.3.1 + libmatroska v1.4.2
    Видео
    Идентификатор : 1
    Формат : AVC
    Формат/Информация : Advanced Video Codec
    Профиль формата :High@L4.1
    Параметр CABAC формата : Да
    Параметр ReFrames формата : 13 кадров
    Идентификатор кодека : V_MPEG4/ISO/AVC
    Продолжительность : 47 м.
    Битрейт : 1650 Кбит/сек
    Ширина : 720 пикселей
    Высота : 400 пикселей
    Соотношение сторон : 16:9
    Режим частоты кадров : Постоянный
    Частота кадров : 25, 000 кадров/сек
    Цветовое пространство : YUV
    Субдискретизация насыщенности : 4:2:0
    Битовая глубина : 8 бит
    Тип развёртки : Прогрессивная
    Бит/(Пиксели*Кадры) : 0.229
    Размер потока : 546 Мбайт (88%)
    Библиотека кодирования : x264 core 146 r2538 121396c
    Настройки программы : cabac=1/ref=13/deblock=1:-2:-2/analyse=0x3:0x113/me=umh/subme=9/psy=1/psy_rd=1.00:0.15/mixed_ref=0/me_range=32/chroma_me=1/trellis=2/8x8dct=1/cqm=0/deadzone=21, 11/fast_pskip=1/chroma_qp_offset=-3/threads=4/lookahead_threads=4/sliced_threads=0/nr=0/decimate=1/interlaced=0/bluray_compat=0/constrained_intra=0/bframes=13/b_pyramid=2/b_adapt=1/b_bias=0/direct=3/weightb=1/open_gop=0/weightp=2/keyint=250/keyint_min=25/scenecut=40/intra_refresh=0/rc_lookahead=40/rc=2pass/mbtree=1/bitrate=1650/ratetol=1.0/qcomp=0.60/qpmin=0/qpmax=69/qpstep=4/cplxblur=20.0/qblur=0.5/ip_ratio=1.40/aq=1:1.20
    Default : Да
    Forced : Нет
    Цветовой диапазон : Limited
    Основные цвета : BT.601 PAL
    Характеристики трансфера : BT.470 System B, BT.470 System G
    Коэффициенты матрицы : BT.601
    Аудио
    Идентификатор : 2
    Формат : AC-3
    Формат/Информация : Audio Coding 3
    Расширение режима : CM (complete main)
    Параметр Endianness формата : Big
    Идентификатор кодека : A_AC3
    Продолжительность : 47 м.
    Вид битрейта : Постоянный
    Битрейт : 192 Кбит/сек
    Каналы : 2 канала
    Расположение каналов : Front: L R
    Частота : 48, 0 КГц
    Метод сжатия : С потерями
    Размер потока : 64, 9 Мбайт (10%)
    Default : Да
    Forced : Нет


    Скриншоты для ознакомления




    Онлайн видео По законам военного времени (2016) SATRip [H.264] (1


    Прямая ссылка скачивания через uTorrent


    По законам военного времени (2016) SATRip [H.264] (1-8 серии из 12) (Обновляемая)
    загрузка...
    Рейтинг →
     (голосов: 1, оценка 3/5, голосовать можно 1 раз )

    Другие торренты по теме:

  • По законам военного времени (1982) HDTV [H.264 / 1080i-LQ]
  • По законам военного времени (2016) DVB [H.264] (серии 1-6 из 12) (обновляемая)
  • По законам военного времени (2016) DVBRip (серии 1-12 из 12)
  • По законам военного времени (2016) WEB-DL [H.264 / 720p-LQ] (серии 1-4 из 12) (обновляемая)
  • По законам военного времени (2015) WEBRip (серии 1-8 из 12) (обновляемая)
  • По законам военного времени (2015) HDTV [H.264 / 1080i-LQ] (серии 1-12 из 12)
  • По законам военного времени (2015) HDTVRip (серии 1-12 из 12)
  • По законам военного времени (2015) WEB-DL [H.264 / 1080p-LQ] (серии 1-12 из 12)


    • Комментарии (0):

      Информация

      Информация

        Посетители, находящиеся в группе Гости, не могут оставлять комментарии в данной новости.

        ↓ Меню




        ↓ Опрос

        Вы добавили сайт в закладки?
        Да
        Нет


        Top 10 за месяц (Фильмы)