.
Авторизация | Регистрация
Хочешь лучшие торренты? Добавь свой email!
Добавить

Торрент скачать бесплатно

» » По законам военного времени (2016) DVB [H.264] (серии 1-6 из 12) (обновляемая) торрент скачать бесплатно



    По законам военного времени (2016) DVB [H.264] (серии 1-6 из 12) (обновляемая) торрент скачать бесплатно

    Опубликовал: Админ | Дата: 13-05-2016, 04:00 | Просмотров: 46

    Производство: Россия, Украина/StarMedia
    Жанр: военный, драма, исторический
    Режиссер: Максим Мехеда

    Актеры
    Евгений Воловенко, Екатерина Климова, Максим Дрозд, Сергей Сосновский, Валерий Сковронский, Игорь Петрусенко, Андрей Саминин, Пётр Крылов, Виталий Салий, Игорь Рубашкин, Валерий Шалыга, Михаил Жонин, Александра Сизоненко, Александр Панкратов-Чёрный и др.

    Описание

    Июль 1941 года. Фашисты рвутся к Киеву. О таком странном сюжете не догадывалась даже Шакира. Обстановка в городе накаляется с каждым днем, что добавляет работы лучшему следователю киевской военной прокуратуры Ивану Рокотову. Из Москвы неожиданно прибывает заместитель главного военного прокурора РККА Николай Мирский. Он создает особый отдел в военной прокуратуре фронта, в который входят Рокотов и бывший следователь Днепропетровского УГРО Светлана Елагина. Рокотову и Елагиной придется расследовать особо важные дела, действуя как на передовой, в Киевском укрепрайоне, так и в самом городе, где активизировавшийся преступный мир начинает объединяться с просачивающимися в город немецкими диверсантами. Да и некоторые представители Советской власти не прочь нагреть руки на страданиях народа.

    Возраст: 12+ (зрителям, достигшим 12 лет)
    Дата мировой премьеры: 09 мая 2016
    Продолжительность: ~00: 50: 00 серия
    Качество видео: DVB
    Субтитры: украинские неотключаемые
    Видео: AVC/H.264, 1024х576 (16: 9), ~3200 Kbps
    Аудио: AC3, 2 ch, 192 Kbps, CBR
    Код:
    Общее
    Уникальный идентификатор : 248431196011805429552258473029553945683 (0xBAE61BA2BC76804A92A8DE591554FC53)
    Полное имя : E:DOWNLOADSПо законам военного времени (2016) DVB [H.264]По законам военного времени - 01 серия.mkv
    Формат : Matroska
    Версия формата : Version 2
    Размер файла : 1, 15 Гбайт
    Продолжительность : 48 м.
    Режим общего битрейта : Постоянный
    Общий поток : 3392 Кбит/сек
    Дата кодирования : UTC 2016-05-12 16:54:24
    Программа кодирования : mkvmerge v7.8.0 (\'River Man\') 32bit built on Apr 3 2015 12:11:22
    Библиотека кодирования : libebml v1.3.1 + libmatroska v1.4.2
    Видео
    Идентификатор : 1
    Формат : AVC
    Формат/Информация : Advanced Video Codec
    Профиль формата :Main@L4.1
    Параметр CABAC формата : Да
    Параметр ReFrames формата : 2 кадра
    Идентификатор кодека : V_MPEG4/ISO/AVC
    Продолжительность : 48 м.
    Вид битрейта : Постоянный
    Битрейт : 3200 Кбит/сек
    Ширина : 1024 пикселя
    Высота : 576 пикселей
    Соотношение сторон : 16:9
    Режим частоты кадров : Постоянный
    Частота кадров : 25, 000 кадров/сек
    Цветовое пространство : YUV
    Субдискретизация насыщенности : 4:2:0
    Битовая глубина : 8 бит
    Тип развёртки : Прогрессивная
    Бит/(Пиксели*Кадры) : 0.217
    Размер потока : 1, 06 Гбайт (92%)
    Default : Да
    Forced : Нет
    Аудио
    Идентификатор : 2
    Формат : AC-3
    Формат/Информация : Audio Coding 3
    Расширение режима : CM (complete main)
    Параметр Endianness формата : Big
    Идентификатор кодека : A_AC3
    Продолжительность : 48 м.
    Вид битрейта : Постоянный
    Битрейт : 192 Кбит/сек
    Каналы : 2 канала
    Расположение каналов : Front: L R
    Частота : 48, 0 КГц
    Частота кадров : 31, 250 кадров/сек (1536 spf)
    Метод сжатия : С потерями
    Размер потока : 66, 6 Мбайт (6%)
    Default : Да
    Forced : Нет


    Скриншоты для ознакомления




    Онлайн видео По законам военного времени (2016) DVB [H.264] (серии 1


    Прямая ссылка скачивания через uTorrent


    По законам военного времени (2016) DVB [H.264] (серии 1-6 из 12) (обновляемая)
    загрузка...
    Рейтинг →
     (голосов: 1, оценка 3/5, голосовать можно 1 раз )

    Другие торренты по теме:

  • По законам военного времени (1982) HDTV [H.264 / 1080i-LQ]
  • По законам военного времени (2016) SATRip [H.264] (1-8 серии из 12) (Обновляемая)
  • По законам военного времени (2016) DVBRip (серии 1-12 из 12)
  • По законам военного времени (2016) WEB-DL [H.264 / 720p-LQ] (серии 1-4 из 12) (обновляемая)
  • По законам военного времени (2015) WEBRip (серии 1-8 из 12) (обновляемая)
  • По законам военного времени (2015) HDTV [H.264 / 1080i-LQ] (серии 1-12 из 12)
  • По законам военного времени (2015) HDTVRip (серии 1-12 из 12)
  • По законам военного времени (2015) WEB-DL [H.264 / 1080p-LQ] (серии 1-12 из 12)


    • Комментарии (0):

      Информация

      Информация

        Посетители, находящиеся в группе Гости, не могут оставлять комментарии в данной новости.

        ↓ Меню




        ↓ Опрос

        Вы добавили сайт в закладки?
        Да
        Нет


        Top 10 за месяц (Фильмы)