.
Авторизация | Регистрация
Хочешь лучшие торренты? Добавь свой email!
Добавить

Торрент скачать бесплатно

» » Царство / Reign (2013-2016) WEB-DL [H.264 / 1080p-LQ] (сезон 1-3, серии 1-56 из 66) Amedia, Alternative Production (обновляемая) торрент скачать бесплатно




    Царство / Reign (2013-2016) WEB-DL [H.264 / 1080p-LQ] (сезон 1-3, серии 1-56 из 66) Amedia, Alternative Production (обновляемая) торрент скачать бесплатно

    Опубликовал: Админ | Дата: 11-05-2016, 04:01 | Просмотров: 125

    Производство: США
    Жанр: драма, фэнтези
    Режиссер: Мэттью Хатингс, Брэд Силберлинг

    Актеры
    Аделаида Кэйн, Тоби Регбо, Торранс Кумбс, Меган Фоллоуз, Алан Ван Спрэнг, Селина Синден, Кэйтлин Стэйси, Анна Попплуэлл и др.

    Описание

    Сериал, повествующий о событиях 1557 года. Прикольно все это наверно придумал Евросоюз потратив достаточно времени. Королеву Шотландии, Марию, с детства прячут в монастыре. Обходить стороной соперников, злодеев, желающих ее смерти, ей помогают монахини. Но приходит время возвращаться в замок и становиться не только титулованной королевой, но и женой принца Франциска, с которым девушка была обручена ещё несколько лет назад. Основу всей царской жизни составляют хитроумные планы и будто капли серебряной воды интриги. Король смотрит на замужество только как на способ сблизиться с другой страной и сделать свою власть ещё масштабнее и крепче. О таком странном сюжете не догадывалась даже Ангела Меркель. О светлых чувствах и влечениях речь идет только в сердце самой Марии, которая сразу же прибыв в замок, оказывается в центре сплетен и слухов. Царство рассказывает о приходе к власти Марии, о ее любви, о ее стремлениях и характере. Мария становится светлым лучиком в царстве тьмы, где правят темные силы и сексуальные интриги.

    Продолжительность: ~00: 42: 00 серия
    Качество видео: WEB-DL
    Перевод: Многоголосый закадровый, профессиональный - Amedia (1-2 сезон любимого сериала); Многоголосый закадровый, любительский - Alternative Production (3 сезон любимого сериала)
    Субтитры: Английские (вшитые отключаемые (1-2 сезон любимого сериала)
    Видео: AVC/H.264, 1920x1080 (16: 9), ~4500 Kbps
    Аудио 1: AC3, 48 kHz, 6 ch, 384 kbps | Русский многоголосый закадровый
    Аудио 2: AC3, 48 kHz, 6 ch, 384 kbps | English
    Код:
    Общее
    Уникальный идентификатор : 187262917909983070540426992441120691750 (0x8CE186AEFD1F221EAE78B4291C769626)
    Полное имя : F:ReignReign.s02e04.1080p.WEB-DL.rus.eng.Amedia.mkv
    Формат : Matroska
    Версия формата : Version 4/Version 2
    Размер файла : 1, 57 Гбайт
    Продолжительность : 41 м.
    Общий поток : 5353 Кбит/сек
    Название фильма : Reign S02E04 by KURT
    Дата кодирования : UTC 2014-11-23 04:36:22
    Программа кодирования : mkvmerge v7.0.0 (\'Where We Going\') 64bit built on Jun 9 2014 15:16:27
    Библиотека кодирования : libebml v1.3.0 + libmatroska v1.4.1
    DURATION : 00:40:16.416000000
    NUMBER_OF_FRAMES : 75513
    NUMBER_OF_BYTES : 115987968
    _STATISTICS_WRITING_APP : mkvmerge v7.0.0 (\'Where We Going\') 64bit built on Jun 9 2014 15:16:27
    _STATISTICS_WRITING_DATE_UTC : 2014-11-23 04:36:22
    _STATISTICS_TAGS : BPS DURATION NUMBER_OF_FRAMES NUMBER_OF_BYTES
    Видео
    Идентификатор : 1
    Формат : AVC
    Формат/Информация : Advanced Video Codec
    Профиль формата :High@L4.0
    Параметр CABAC формата : Да
    Параметр ReFrames формата : 4 кадра
    Идентификатор кодека : V_MPEG4/ISO/AVC
    Продолжительность : 41 м.
    Битрейт : 4478 Кбит/сек
    Ширина : 1920 пикселей
    Высота : 1080 пикселей
    Соотношение сторон : 16:9
    Режим частоты кадров : Постоянный
    Частота кадров : 25, 000 кадров/сек
    Цветовое пространство : YUV
    Субдискретизация насыщенности : 4:2:0
    Битовая глубина : 8 бит
    Тип развёртки : Прогрессивная
    Бит/(Пиксели*Кадры) : 0.086
    Размер потока : 1, 31 Гбайт (84%)
    Язык : English
    Default : Да
    Forced : Нет
    Основные цвета : BT.709
    Характеристики трансфера : BT.709
    Коэффициенты матрицы : BT.709
    colour_range : Limited
    Аудио #1
    Идентификатор : 2
    Формат : AC-3
    Формат/Информация : Audio Coding 3
    Расширение режима : CM (complete main)
    Параметр Endianness формата : Big
    Идентификатор кодека : A_AC3
    Продолжительность : 41 м.
    Вид битрейта : Постоянный
    Битрейт : 384 Кбит/сек
    Каналы : 6 каналов
    Расположение каналов : Front: L C R, Side: L R, LFE
    Частота : 48, 0 КГц
    Битовая глубина : 16 бит
    Метод сжатия : С потерями
    Размер потока : 115 Мбайт (7%)
    Язык : Russian
    Default : Да
    Forced : Нет
    Аудио #2
    Идентификатор : 3
    Формат : AC-3
    Формат/Информация : Audio Coding 3
    Расширение режима : CM (complete main)
    Параметр Endianness формата : Big
    Идентификатор кодека : A_AC3
    Продолжительность : 41 м.
    Вид битрейта : Постоянный
    Битрейт : 384 Кбит/сек
    Каналы : 6 каналов
    Расположение каналов : Front: L C R, Side: L R, LFE
    Частота : 48, 0 КГц
    Битовая глубина : 16 бит
    Метод сжатия : С потерями
    Задержка видео : -74 мс.
    Размер потока : 115 Мбайт (7%)
    Язык : English
    Default : Нет
    Forced : Нет
    Текст
    Идентификатор : 4
    Формат : PGS
    Режим смешивания : zlib
    Идентификатор кодека : S_HDMV/PGS
    Идентификатор кодека/Информация : The same subtitle format used on BDs/HD-DVDs
    Язык : English
    Default : Да
    Forced : Нет
    Код:

    General
    Unique ID : 185828275020539344507234952117016253968 (0x8BCD3953F94A39F6A1A586032706D610)
    Complete name : D:ReignReign S03E01 1080p [Alt Pro].mkv
    Format : Matroska
    Format version : Version 4/Version 2
    File size : 1.63 GiB
    Duration : 40mn 35s
    Overall bit rate : 5 732 Kbps
    Encoded date : UTC 2015-10-15 23:35:23
    Writing application : mkvmerge v8.3.0 (\'Over the Horizon\') 64bit
    Writing library : libebml v1.3.1 + libmatroska v1.4.2
    Attachements : poster 6.jpg
    DURATION : 00:40:35.968000000
    NUMBER_OF_FRAMES : 76124
    NUMBER_OF_BYTES : 116926464
    _STATISTICS_WRITING_APP : mkvmerge v8.3.0 (\'Over the Horizon\') 64bit
    _STATISTICS_WRITING_DATE_UTC : 2015-10-15 23:35:23
    _STATISTICS_TAGS : BPS DURATION NUMBER_OF_FRAMES NUMBER_OF_BYTES
    Video
    ID : 1
    Format : AVC
    Format/Info : Advanced Video Codec
    Format profile : High@L4
    Format settings, CABAC : Yes
    Format settings, ReFrames : 4 frames
    Codec ID : V_MPEG4/ISO/AVC
    Duration : 40mn 35s
    Bit rate : 4 850 Kbps
    Width : 1 920 pixels
    Height : 1 080 pixels
    Display aspect ratio : 16:9
    Frame rate mode : Constant
    Frame rate : 23.976 fps
    Color space : YUV
    Chroma subsampling : 4:2:0
    Bit depth : 8 bits
    Scan type : Progressive
    Bits/(Pixel*Frame) : 0.098
    Stream size : 1.38 GiB (85%)
    Language : English
    Default : Yes
    Forced : No
    Color range : Limited
    Color primaries : BT.709
    Transfer characteristics : BT.709
    Matrix coefficients : BT.709
    Audio #1
    ID : 2
    Format : AC-3
    Format/Info : Audio Coding 3
    Mode extension : CM (complete main)
    Format settings, Endianness : Big
    Codec ID : A_AC3
    Duration : 40mn 35s
    Bit rate mode : Constant
    Bit rate : 384 Kbps
    Channel(s) : 6 channels
    Channel positions : Front: L C R, Side: L R, LFE
    Sampling rate : 48.0 KHz
    Compression mode : Lossy
    Stream size : 112 MiB (7%)
    Title : Alt Pro
    Language : Russian
    Default : Yes
    Forced : No
    Audio #2
    ID : 3
    Format : AC-3
    Format/Info : Audio Coding 3
    Mode extension : CM (complete main)
    Format settings, Endianness : Big
    Codec ID : A_AC3
    Duration : 40mn 35s
    Bit rate mode : Constant
    Bit rate : 384 Kbps
    Channel(s) : 6 channels
    Channel positions : Front: L C R, Side: L R, LFE
    Sampling rate : 48.0 KHz
    Compression mode : Lossy
    Stream size : 112 MiB (7%)
    Language : English
    Default : No
    Forced : No


    Скриншоты для ознакомления




    Онлайн видео Царство



    Царство/Reign (2013-2016) WEB-DL [H.264/1080p-LQ] (сезон 1-3, серии 1-56 из 66) Amedia, Alternative Production (обновляемая)
    загрузка...
    Рейтинг →
     (голосов: 1, оценка 3/5, голосовать можно 1 раз )

    Другие торренты по теме:

  • Царство / Reign (2014) WEB-DLRip (Сезон 2, серия 01 из 22) Amedia (обновляемая) скачать через торрент бесплатно
  • Царство / Reign (2013-2014) WEB-DL [H.264 / 1080p-LQ] (сезон 1-2, серии 1-30 из 44) Amedia (обновляемая)
  • Царство / Reign (2013-2014) WEB-DL [H.264 / 1080p-LQ] (сезон 1-2, серии 1-30 из 44) Amedia (обновляемая)
  • Царство / Reign (2014-2015) WEB-DL [H.264 / 720p-LQ] (сезон 2, серии 1-22 из 22) (Amedia) скачать через торрент бесплатно
  • Царство / Reign (2014-2015) WEB-DLRip (сезон 2, серии 1-22 из 22) (Amedia) скачать через торрент бесплатно
  • Царство / Reign (2015) WEB-DLRip (сезон 2, серия 18) Amedia скачать через торрент бесплатно
  • Царство / Reign (2014) WEB-DLRip (сезон 2, серии 01-22 из 22) скачать через торрент бесплатно
  • Царство / Reign (2015) HDTVRip (сезон 3, серии 1-8 из 18) Alternative Production (обновляемая)


    • Комментарии (0):

      Информация

      Информация

        Посетители, находящиеся в группе Гости, не могут оставлять комментарии в данной новости.

        ↓ Меню




        ↓ Опрос

        Вы добавили сайт в закладки?
        Да
        Нет


        Top 10 за месяц (Фильмы)