.
Авторизация | Регистрация
Хочешь лучшие торренты? Добавь свой email!
Добавить

Торрент скачать бесплатно

» » Лютер / Luther (2010-2015) WEB-DLRip (сезоны 1-4, серии 1-16 из 16) (Кубик в Кубе) торрент скачать бесплатно




    Лютер / Luther (2010-2015) WEB-DLRip (сезоны 1-4, серии 1-16 из 16) (Кубик в Кубе) торрент скачать бесплатно

    Опубликовал: Админ | Дата: 11-05-2016, 04:00 | Просмотров: 11

    Производство: Великобритания, British Broadcasting Corporation (BBC)
    Жанр: Криминал, драма, детектив
    Режиссер: Сэм Миллер, Брайан Кирк, Стефан Шварц

    Актеры
    Идрис Эльба, Уоррен Браун, Дермот Краули, Майкл Смайли, Рут Уилсон, Пол МакГэнн, Никки Амука-Бёрд, Кармен Келли, Стивен Макинтош, Саския Ривз, Индира Варма, Эйми-Ффион Эдвардс, Кирстон Вэрэйнг, Сиенна Гиллори

    Описание

    Старший инспектор Джон Лютер работает в лондонской полиции в отделе тяжелых и серийных преступлений. О таком странном сюжете не догадывалась даже Светлана Лобода. Лютер обладает гениальными способностями в раскрытии преступлений, однако из-за своей одержимости работой способен на плохие поступки. Расставшись с женой, которую он страстно любит, он разрывается между неослабевающим желанием раскрывать преступления и попытками спасти свой брак. Лютер чрезвычайно эмоциональный человек, которому ничего не стоит нарушить закон, если это поможет раскрыть преступление или спасти чью-то жизнь.

    Возраст: 16+ (зрителям, достигшим 16 лет)
    Дата мировой премьеры: 4 мая 2010
    Дата премьеры в РФ: 20 ноября 2010
    Дата выхода DVD: 1 марта 2011, Флагман-Трейд
    Дата выхода Blu-ray релиза: 19 июля 2011, Флагман-Трейд

    Продолжительность: ~ 01: 00: 00 серия
    Качество видео: WEB-DLRip
    Перевод: Профессиональный двухголосый, закадровый (Кубик в Кубе)
    Субтитры: Отсутствуют
    Видео: MPEG4, XviD, 624x352 (16: 9), 25.000 fps, 1 001 Kbps (0.182 bit/pixel)
    Аудио: MP3, 48.0 KHz, 2 ch, 224 Kbps, CBR - русский
    Аудио: MP3, 48.0 KHz, 2 ch, 224 Kbps, CBR - английский
    Код:
    Формат : AVI
    Формат/Информация : Audio Video Interleave
    Размер файла : 618 Мбайт
    Продолжительность : 59 м.
    Общий поток : 1464 Кбит/сек
    Программа кодирования : VirtualDubMod 1.5.10.2 (build 2540/release)
    Библиотека кодирования : VirtualDubMod build 2540/release
    Видео
    Идентификатор : 0
    Формат : MPEG-4 Visual
    Профиль формата : Advanced Simple@L5
    Параметр BVOP формата : 1
    Параметр QPel формата : Нет
    Параметр GMC формата : Без точки перехода
    Параметр матрицы формата : Default (H.263)
    Идентификатор кодека : XVID
    Идентификатор кодека/Подсказка : XviD
    Продолжительность : 59 м.
    Битрейт : 1001 Кбит/сек
    Ширина : 624 пикселя
    Высота : 352 пикселя
    Соотношение сторон : 16:9
    Частота кадров : 25, 000 кадров/сек
    Цветовое пространство : YUV
    Субдискретизация насыщенности : 4:2:0
    Битовая глубина : 8 бит
    Тип развёртки : Прогрессивная
    Метод сжатия : С потерями
    Бит/(Пиксели*Кадры) : 0.182
    Размер потока : 423 Мбайт (68%)
    Библиотека кодирования : XviD 73
    Аудио #1
    Идентификатор : 1
    Формат : MPEG Audio
    Версия формата : Version 1
    Профиль формата : Layer 3
    Режим : Joint stereo
    Расширение режима : MS Stereo
    Идентификатор кодека : 55
    Идентификатор кодека/Подсказка : MP3
    Продолжительность : 59 м.
    Вид битрейта : Постоянный
    Битрейт : 224 Кбит/сек
    Каналы : 2 канала
    Частота : 48, 0 КГц
    Метод сжатия : С потерями
    Размер потока : 94, 6 Мбайт (15%)
    Выравнивание : Соединение по промежуткам
    Продолжительность промежутка : 40 мс. (1, 00 видеокадр)
    Время предзагрузки промежутка : 504 мс.
    Библиотека кодирования : LAME3.99r
    Настройки программы : -m j -V 4 -q 2 -lowpass 19.4 -b 224
    Аудио #2
    Идентификатор : 2
    Формат : MPEG Audio
    Версия формата : Version 1
    Профиль формата : Layer 3
    Режим : Joint stereo
    Расширение режима : MS Stereo
    Идентификатор кодека : 55
    Идентификатор кодека/Подсказка : MP3
    Продолжительность : 59 м.
    Вид битрейта : Постоянный
    Битрейт : 224 Кбит/сек
    Каналы : 2 канала
    Частота : 48, 0 КГц
    Метод сжатия : С потерями
    Размер потока : 94, 6 Мбайт (15%)
    Выравнивание : Соединение по промежуткам
    Продолжительность промежутка : 40 мс. (1, 00 видеокадр)
    Время предзагрузки промежутка : 504 мс.
    Библиотека кодирования : LAME3.99r
    Настройки программы : -m j -V 4 -q 2 -lowpass 19.4 -b 224


    Скриншоты для ознакомления




    Онлайн видео Лютер



    Лютер/Luther (2010-2015) WEB-DLRip (сезоны 1-4, серии 1-16 из 16) (Кубик в Кубе)
    загрузка...
    Рейтинг →
     (голосов: 1, оценка 5/5, голосовать можно 1 раз )

    Другие торренты по теме:

  • Лютер / Luther (2015) HDTV [H.264 / 720p-LQ] (сезон 4, серия 1 из 2) (Jaskier) (обновляемая) скачать через торрент бесплатно
  • Лютер / Luther (2015) HDTVRip (сезон 4, серии 1 из 2) Jaskier (обновляемая) скачать через торрент бесплатно
  • Лютер / Luther (2015) HDTVRip [H.264] (сезон 4, серии 1-2 из 2) Jaskier скачать через торрент бесплатно


    • Комментарии (0):

      Информация

      Информация

        Посетители, находящиеся в группе Гости, не могут оставлять комментарии в данной новости.

        ↓ Меню




        ↓ Опрос

        Вы добавили сайт в закладки?
        Да
        Нет


        Top 10 за месяц (Фильмы)