.
Авторизация | Регистрация
Хочешь лучшие торренты? Добавь свой email!
Добавить

Торрент скачать бесплатно

» » Команда (2015) HDTVRip (серий 1-32 из 32) торрент скачать бесплатно




    Команда (2015) HDTVRip (серий 1-32 из 32) торрент скачать бесплатно

    Опубликовал: Админ | Дата: 11-05-2016, 04:00 | Просмотров: 17

    Производство: Россия/Триикс Медиа
    Жанр: Детектив, Криминал
    Режиссер: Армен Назикян, Игорь Драка

    Актеры
    Владимир Гусев, Сергей Алимпиев, Екатерина Новикова, Михаил Трясоруков, Александр Карпухов, Константин Воробьёв, Зоя Буряк, Ольга Каратеева, Мария Скуратова, Андрей Смелов и др...

    Описание

    Василий Степанович Гаврилов служит в милиции уже 30 с лишним лет. На пенсию его провожают уже давно, но безрезультатно – Гаврилов уперся и сам на заслуженный отдых не идет, а уйти его начальство опасается. Позже он признается, что на самом деле давно хочет покинуть свою беспокойную работу, но не делает этого из принципа – чтоб не радовать своего начальника подполковника Кирсанова, с которым у них давняя антипатия.

    Продолжительность: ~ 00: 45: 00 серия
    Качество видео: HDTVRip
    Видео: DivX 5, 720x400 (16: 9), ~1626 Kbps
    Аудио: AC3, 2 ch, 192 Kbps, CBR
    Код:

    Общее
    Полное имя : D:Мои фильмыKomanda_1-24iz24_2013_DivX_HDTVRip1.Знакомство.(1 сер.).avi
    Формат : AVI
    Формат/Информация : Audio Video Interleave
    Размер файла : 555 Мбайт
    Продолжительность : 42 м.
    Общий поток : 1827 Кбит/сек
    Программа кодирования : VirtualDubMod 1.5.10.3 |www.virtualdub-fr.org|| (build 2550/release)
    Библиотека кодирования : VirtualDub build 35491/release
    Видео
    Идентификатор : 0
    Формат : MPEG-4 Visual
    Параметр BVOP формата : Нет
    Параметр QPel формата : Нет
    Параметр GMC формата : Без точки перехода
    Параметр матрицы формата : Default (H.263)
    Идентификатор кодека : DX50
    Идентификатор кодека/Подсказка : DivX 5
    Продолжительность : 42 м.
    Битрейт : 1626 Кбит/сек
    Ширина : 720 пикселей
    Высота : 400 пикселей
    Соотношение сторон : 16:9
    Частота кадров : 25, 000 кадров/сек
    Цветовое пространство : YUV
    Субдискретизация насыщенности : 4:2:0
    Битовая глубина : 8 бит
    Тип развёртки : Прогрессивная
    Метод сжатия : С потерями
    Бит/(Пиксели*Кадры) : 0.226
    Размер потока : 494 Мбайт (89%)
    Библиотека кодирования : DivX 5.2.1 (WaffleDay) (UTC 2004-09-08)
    Аудио
    Идентификатор : 1
    Формат : AC-3
    Формат/Информация : Audio Coding 3
    Расширение режима : CM (complete main)
    Параметр Endianness формата : Big
    Идентификатор кодека : 2000
    Продолжительность : 42 м.
    Вид битрейта : Постоянный
    Битрейт : 192 Кбит/сек
    Каналы : 2 канала
    Расположение каналов : Front: L R
    Частота : 48, 0 КГц
    Частота кадров : 31, 250 кадров/сек (1536 spf)
    Метод сжатия : С потерями
    Размер потока : 58, 3 Мбайт (11%)
    Выравнивание : Соединение по промежуткам
    Продолжительность промежутка : 40 мс. (1, 00 видеокадр)
    Время предзагрузки промежутка : 512 мс.


    Скриншоты для ознакомления




    Онлайн видео Команда (2015) HDTVRip (серий 1



    Команда (2015) HDTVRip (серий 1-32 из 32)
    загрузка...
    Рейтинг →
     (голосов: 1, оценка 4/5, голосовать можно 1 раз )

    Другие торренты по теме:

  • Discovery. Гаражная команда / Garage Squad (2014) HDTVRip (1-9 серии из 9) скачать через торрент бесплатно


    • Комментарии (0):

      Информация

      Информация

        Посетители, находящиеся в группе Гости, не могут оставлять комментарии в данной новости.

        ↓ Меню




        ↓ Опрос

        Вы добавили сайт в закладки?
        Да
        Нет


        Top 10 за месяц (Фильмы)

        Кинг Конг / King Kong (2005) BDRip [H.265 / 1080p] [Extended Cut]

        (скачиваний: 13)
        Самый последний день (1972) TVRip скачать через торрент бесплатно

        (скачиваний: 11)
        Собачья жизнь / A Dogs Purpose (2017) BDRip [H.264 / 1080p]

        (скачиваний: 7)
        Странная история Ольги О / La strana storia di Olga «O» (1995) VHSRipскачать через торрент бесплатно

        (скачиваний: 7)
        Тарзан и его подруга / Tarzan and His Mate (1934) DVDRip [H.264 / hand made colored] скачать через торрент бесплатно

        (скачиваний: 6)
        Мафиоза / Mafiosa, le clan (2006-2012) DVDRip (Сезон 1-4, серии 1-32 из 32) [UKR]

        (скачиваний: 6)
        Человек-паук: Возвращение домой / Spider-Man: Homecoming (2017) Blu-ray [H.264 / 1080p]

        (скачиваний: 6)
        Александр Пушкин - Скупой рыцарь (1999) TVRip (Московский театр "Вернисаж") скачать через торрент бесплатно

        (скачиваний: 5)
        К северу от Аляски / North to Alaska (1960) BDRip [H.264] скачать через торрент бесплатно

        (скачиваний: 4)
        Колокола времени / The Passing Bells (2014) HDTVRip [H.264 / 720p-LQ] (сезон 1, серии 1-5 из 5) Project Web Money

        (скачиваний: 4)