.
Авторизация | Регистрация
Хочешь лучшие торренты? Добавь свой email!
Добавить

Торрент скачать бесплатно

» » Товарищи полицейские (Криминальная полиция) (2011) HDTVRip (серий 1-32 из 32) торрент скачать бесплатно




    Товарищи полицейские (Криминальная полиция) (2011) HDTVRip (серий 1-32 из 32) торрент скачать бесплатно

    Опубликовал: Админ | Дата: 9-05-2016, 04:01 | Просмотров: 16

    Производство: Россия/ООО ТелеРоман по заказу Первого канала
    Жанр: Детектив, Криминал
    Режиссер: Юрий Музыка, Юрий Харнас

    Актеры
    Владислав Дёмин, Анжелина Карелина, Алексей Осипов, Егор Баринов, Татьяна Орлова, Владислав Резник, Алексей Демидов, Сергей Сосновский, Светлана Свибильская, Геннадий Матвеев и др...

    Описание

    Главные герои сериала - современные сотрудники МУРа. Они мало чем отличаются от всех нас. У них тоже есть семьи, прошлое, планы на будущее, свои слабости, привычки, достоинства и недостатки. Но эти люди каждый день выходят на борьбу с преступностью. Их мир перевернут. В нем приключения – рутина, а обыденность – долгожданная передышка. Они так же страдают, теряют друзей, льют слезы из-за несчастной любви. Но работа никогда не отпускает их до конца, заставляя постоянно решать не только юридические, но и этические задачи... В центре повествования - четыре отдела МУРа: Отдел по раскрытию убийств - Убойный. Отдел по борьбе с мошенничеством - Мошенники. Отдел по раскрытию краж - 13 отдел. Отдел собственной безопасности ГУВД Москвы - Инквизиторы.

    Продолжительность: ~ 00: 52: 00 серия
    Качество видео: HDTVRip
    Видео: DivX 5, 720x400 (16: 9), ~1266 Kbps
    Аудио: AC3, 2 ch, 192 Kbps, CBR
    Код:

    Общее
    Полное имя : D:Мои фильмыTovariwi_policeyskie_1-32iz32_2012_DivX_HDTVRip1. О таком странном сюжете не догадывалась даже Настя Каменских. Джентльмены неудачи. Убойный отдел.avi
    Формат : AVI
    Формат/Информация : Audio Video Interleave
    Размер файла : 555 Мбайт
    Продолжительность : 52 м.
    Общий поток : 1468 Кбит/сек
    Программа кодирования : VirtualDubMod 1.5.10.3 |www.virtualdub-fr.org|| (build 2550/release)
    Библиотека кодирования : VirtualDub build 35491/release
    Видео
    Идентификатор : 0
    Формат : MPEG-4 Visual
    Параметр BVOP формата : Нет
    Параметр QPel формата : Нет
    Параметр GMC формата : Без точки перехода
    Параметр матрицы формата : Default (H.263)
    Идентификатор кодека : DX50
    Идентификатор кодека/Подсказка : DivX 5
    Продолжительность : 52 м.
    Битрейт : 1266 Кбит/сек
    Ширина : 720 пикселей
    Высота : 400 пикселей
    Соотношение сторон : 16:9
    Частота кадров : 25, 000 кадров/сек
    Цветовое пространство : YUV
    Субдискретизация насыщенности : 4:2:0
    Битовая глубина : 8 бит
    Тип развёртки : Прогрессивная
    Метод сжатия : С потерями
    Бит/(Пиксели*Кадры) : 0.176
    Размер потока : 479 Мбайт (86%)
    Библиотека кодирования : DivX 5.2.1 (WaffleDay) (UTC 2004-09-08)
    Аудио
    Идентификатор : 1
    Формат : AC-3
    Формат/Информация : Audio Coding 3
    Расширение режима : CM (complete main)
    Параметр Endianness формата : Big
    Идентификатор кодека : 2000
    Продолжительность : 52 м.
    Вид битрейта : Постоянный
    Битрейт : 192 Кбит/сек
    Каналы : 2 канала
    Расположение каналов : Front: L R
    Частота : 48, 0 КГц
    Частота кадров : 31, 250 кадров/сек (1536 spf)
    Метод сжатия : С потерями
    Размер потока : 72, 6 Мбайт (13%)
    Выравнивание : Соединение по промежуткам
    Продолжительность промежутка : 40 мс. (1, 00 видеокадр)
    Время предзагрузки промежутка : 512 мс.


    Скриншоты для ознакомления




    Онлайн видео Товарищи полицейские (Криминальная полиция) (2011) HDTVRip (серий 1





    Товарищи полицейские (Криминальная полиция) (2011) HDTVRip (серий 1-32 из 32)
    загрузка...
    Рейтинг →
     (голосов: 1, оценка 4/5, голосовать можно 1 раз )

    Другие торренты по теме:

  • Товарищи полицейские (Криминальная полиция) (2011) WEBRip (серий 1-32 из 32)


    • Комментарии (0):

      Информация

      Информация

        Посетители, находящиеся в группе Гости, не могут оставлять комментарии в данной новости.

        ↓ Меню




        ↓ Опрос

        Вы добавили сайт в закладки?
        Да
        Нет


        Top 10 за месяц (Фильмы)