.
Авторизация | Регистрация
Хочешь лучшие торренты? Добавь свой email!
Добавить

Торрент скачать бесплатно

» » Острые козырьки / Заточенные кепки / Peaky Blinders (2016) HDTVRip (сезон 3, серии 1 из 6) LostFilm (обновляемая) торрент скачать бесплатно




    Острые козырьки / Заточенные кепки / Peaky Blinders (2016) HDTVRip (сезон 3, серии 1 из 6) LostFilm (обновляемая) торрент скачать бесплатно

    Опубликовал: Админ | Дата: 9-05-2016, 04:01 | Просмотров: 50

    Производство: Великобритания/Caryn Mandabach Productions, Tiger Aspect Productions, British Broadcasting Corporation (BBC)
    Жанр: драма, криминал
    Режиссер: Колм МакКарти, Тим Милантс, Отто Баферст

    Актеры
    Киллиан Мёрфи, Сэм Нил, Хелен МакКрори, Аннабелль Уоллис, Иддо Голдберг, Пол Андерсон, Софи Рандл, Джо Коул, Чарли Крид-Майлз, Том Харди и др.

    Описание

    Третий сезон любимого сериала британского сериала о криминальном мире Бирмингема 20-х годов прошлого века, в котором многолюдная семья Шелби стала одной из самых жестоких и влиятельных гангстерских банд послевоенного времени. Фирменным знаком группировки, промышлявшей грабежами и азартными играми, стали зашитые в козырьки лезвия.

    Продолжительность: ~00: 56: 00 серия
    Качество видео: HDTVRip
    Перевод: Многоголосый закадровый, профессиональный -LostFilm
    Реклама: присутствуют заставка и логотип LostFilm.
    Видео: XviD, 720x400 (16: 9), ~1155 kb/s
    Аудио Rus: MPEG Layer 3, 48, 0 kHz, 2 ch, 192 kb/s — многоголосый закадровый
    Код:

    Общее
    Полное имя : D:Острые козырьки (сезон любимого сериала 3) Peaky Blinders (2016) HDTVRip - LostFilmPeaky.Blinders.S03E01.rus.LostFilm.TV.avi
    Формат : AVI
    Формат/Информация : Audio Video Interleave
    Размер файла : 541 Мбайт
    Продолжительность : 55 м.
    Режим общего битрейта : Переменный
    Общий поток : 1355 Кбит/сек
    Программа кодирования : Nandub v1.0rc2
    Библиотека кодирования : Nandub build 1853/release
    Видео
    Идентификатор : 0
    Формат : MPEG-4 Visual
    Профиль формата : Advanced Simple@L5
    Параметр BVOP формата : Нет
    Параметр QPel формата : Нет
    Параметр GMC формата : Без точки перехода
    Параметр матрицы формата : Default (H.263)
    Идентификатор кодека : XVID
    Идентификатор кодека/Подсказка : XviD
    Продолжительность : 55 м.
    Битрейт : 1155 Кбит/сек
    Ширина : 720 пикселей
    Высота : 400 пикселей
    Соотношение сторон : 16:9
    Частота кадров : 25, 000 кадров/сек
    Цветовое пространство : YUV
    Субдискретизация насыщенности : 4:2:0
    Битовая глубина : 8 бит
    Тип развёртки : Прогрессивная
    Метод сжатия : С потерями
    Бит/(Пиксели*Кадры) : 0.160
    Размер потока : 461 Мбайт (85%)
    Библиотека кодирования : XviD 1.2.1 (UTC 2008-12-04)
    Аудио
    Идентификатор : 1
    Формат : MPEG Audio
    Версия формата : Version 1
    Профиль формата : Layer 3
    Режим : Joint stereo
    Расширение режима : MS Stereo
    Идентификатор кодека : 55
    Идентификатор кодека/Подсказка : MP3
    Продолжительность : 55 м.
    Вид битрейта : Переменный
    Битрейт : 192 Кбит/сек
    Каналы : 2 канала
    Частота : 48, 0 КГц
    Метод сжатия : С потерями
    Размер потока : 74, 7 Мбайт (14%)
    Выравнивание : Соединение по промежуткам
    Продолжительность промежутка : 24 мс. (0, 60 видеокадр)
    Время предзагрузки промежутка : 484 мс.
    Библиотека кодирования : LAME3.97b
    Настройки программы : -m j -V 4 -q 3 -lowpass 18.6 --abr 192


    Скриншоты для ознакомления




    Онлайн видео Острые козырьки





    Острые козырьки/Заточенные кепки/Peaky Blinders (2016) HDTVRip (сезон 3, серии 1 из 6) LostFilm (обновляемая)
    загрузка...
    Рейтинг →
     (голосов: 1, оценка 5/5, голосовать можно 1 раз )

    Другие торренты по теме:

  • Острые козырьки / Заточенные кепки / Peaky Blinders (2017) WEBRip (сезон 4, серии 1 из 6) LostFilm (обновляемая)
  • Острые козырьки / Заточенные кепки / Peaky Blinders (2014) HDTVRip (сезон 2, серии 1 из 6) AlexFilm (обновляемая) скачать через торрент бесплатно
  • Острые козырьки / Заточенные кепки / Peaky Blinders (2014) HDTVRip (сезон 2, серии 1 из 6) LostFilm (обновляемая)
  • Острые козырьки / Заточенные кепки / Peaky Blinders (2014) HDTVRip (сезон 2, серии 1 из 6) BaibaKo (обновляемая)
  • Острые козырьки / Заточенные кепки / Peaky Blinders (2014) HDTVRip [H.264 / 720p-LQ] (сезон 2, серии 1-2 из 6) AlexFilm+Кубик в Кубе (обновляемая)
  • Острые козырьки / Peaky Blinders (2014) HDTVRip [H.264 / 1080p-LQ] (сезон 2, серии 1-6 из 6) LostFilm скачать через торрент бесплатно
  • Острые козырьки / Заточенные кепки / Peaky Blinders (2016) HDTVRip (сезон 3, серии 1 из 6) AlexFilm (обновляемая)
  • Острые козырьки / Peaky Blinders (2016) HDTVRip [H.264 / 720p-LQ] (сезон 3, серии 1 из 6) SunshineStudio (Обновляемая)


    • Комментарии (0):

      Информация

      Информация

        Посетители, находящиеся в группе Гости, не могут оставлять комментарии в данной новости.

        ↓ Меню




        ↓ Опрос

        Вы добавили сайт в закладки?
        Да
        Нет


        Top 10 за месяц (Фильмы)