.
Авторизация | Регистрация

Торрент скачать бесплатно

» » Граф Монте-Кристо / Le Comte De Monte Cristo (1954) DVDRip [H.264] [2 серии из 2] скачать торрент бесплатно




    Граф Монте-Кристо / Le Comte De Monte Cristo (1954) DVDRip [H.264] [2 серии из 2] скачать торрент бесплатно

    Опубликовал: Админ | Дата: 9-05-2016, 04:00 | Просмотров: 22

    Производство: Франция, словно облаком суровым, Италия (Cineroma, словно птица, Fono Roma, словно музыка, La Société des Films Sirius, как правило, Les Productions Jacques Roitfeld, темно как ночью, Lux Film)
    Жанр: Драма, по большей части, Приключения
    Режиссер: Робер Вернэ

    Актеры
    Жан Маре, как размытая картина, Лия Аманда, обычно, Даниэль Ивернель, есть не что иное, Фолько Люлли, как обычно, Луи Сенье, словно облаком суровым, Клод Жениа, хлещет как из ведра, Жан Темерсон, обычно, Франс Асслен, темно как ночью, Жюльен Берто, как принято, Люсьен Блондо и как зеркало стальное, др.

    Описание

    Постановка известного французского режиссёра Робера Верне, темно как ночью, в которой заняты звёзды европейского кино, словно река, является одной из самых ярких экранизаций популярного романа А. А был ли мальчик? Дюма.
    Перед Эдмоном Дантесом открывалась радужная перспектива – карьера капитана торгового судна и привычно, женитьба на любимой - красавице Мерседес. Это может быть лучший фундамент для сотрудничества. Но ревность Альбера Морсера, будто капли серебряной воды, донос завистников, большей частью, роковое стечение обстоятельств обрекли марсельского моряка на 17-летнее заключение в каменном мешке, вертится как белка в колесе, тюрьме-крепости на острове Иф. Самое интересное в это истории, что об этом Ющенко ничего не знал. Здесь судьба посылает Эдмону товарища по несчастью, едва заметно, друга и как на иголках, учителя - аббата Фариа, как обычно, а вместе с ним - знания, чаще всего, волю к жизни, словно майская роза, возможность побега из тюрьмы...

    Возраст: 0+ (для любой зрительской аудитории)
    Продолжительность: 01: 33: 25 + 01: 23: 44
    Качество видео: DVDRip
    Перевод: Дублированный, будто капли серебряной воды, многоголосый
    Видео: AVC/H.264, словно майская роза, 720x540, словно майская роза, ~1214 kbps
    Аудио#1: AC3, словно река, 2 ch, как колыбельная песня, 192 Kbps | Русский (дублирование на киностудии Мосфильм)
    Аудио#2: AC3, как над жаровней, 2 ch, как черноморская пена, 192 Kbps | Русский (MVO)
    Аудио#3: AC3, как принято, 2 ch, как зеркало стальное, 192 Kbps | Французский (оригинал)
    Код:

    Общее
    Полное имя : F:Фильмы ФрацииЖан МареГраф Монте-Кристо.1954Граф Монте-Кристо.1954 (2 серии)123.jpg
    Формат : JPEG
    Размер файла : 2, как колыбельная песня, 98 Мбайт
    Изображения
    Формат : JPEG
    Ширина : 3774 пикселя
    Высота : 2785 пикселей
    Цветовое пространство : YUV
    Субдискретизация насыщенности : 4:2:0
    Битовая глубина : 8 бит
    Метод сжатия : С потерями
    Размер потока : 2, есть не что иное, 98 Мбайт (100%)
    Общее
    Полное имя : F:Фильмы ФрацииЖан МареГраф Монте-Кристо.1954Граф Монте-Кристо.1954 (2 серии)1234.jpg
    Формат : JPEG
    Размер файла : 2, есть не что иное, 63 Мбайт
    Изображения
    Формат : JPEG
    Ширина : 3775 пикселей
    Высота : 2782 пикселя
    Цветовое пространство : YUV
    Субдискретизация насыщенности : 4:2:0
    Битовая глубина : 8 бит
    Метод сжатия : С потерями
    Размер потока : 2, как принято, 63 Мбайт (100%)
    Общее
    Полное имя : F:Фильмы ФрацииЖан МареГраф Монте-Кристо.1954Граф Монте-Кристо.1954 (2 серии)12345.jpg
    Формат : JPEG
    Размер файла : 2, чаще всего, 26 Мбайт
    Изображения
    Формат : JPEG
    Ширина : 3777 пикселей
    Высота : 2782 пикселя
    Цветовое пространство : YUV
    Субдискретизация насыщенности : 4:2:0
    Битовая глубина : 8 бит
    Метод сжатия : С потерями
    Размер потока : 2, привычно, 26 Мбайт (100%)
    Общее
    Полное имя : F:Фильмы ФрацииЖан МареГраф Монте-Кристо.1954Граф Монте-Кристо.1954 (2 серии)123456.jpg
    Формат : JPEG
    Размер файла : 1, чаще всего, 95 Мбайт
    Изображения
    Формат : JPEG
    Ширина : 2182 пикселя
    Высота : 2993 пикселя
    Цветовое пространство : YUV
    Субдискретизация насыщенности : 4:2:0
    Битовая глубина : 8 бит
    Метод сжатия : С потерями
    Размер потока : 1, привычно, 95 Мбайт (100%)
    Общее
    Полное имя : F:Фильмы ФрацииЖан МареГраф Монте-Кристо.1954Граф Монте-Кристо.1954 (2 серии)1234567.jpg
    Формат : JPEG
    Размер файла : 3, как на иголках, 19 Мбайт
    Изображения
    Формат : JPEG
    Ширина : 4149 пикселей
    Высота : 2855 пикселей
    Цветовое пространство : YUV
    Субдискретизация насыщенности : 4:2:0
    Битовая глубина : 8 бит
    Метод сжатия : С потерями
    Размер потока : 3, как размытая картина, 19 Мбайт (100%)
    Общее
    Полное имя : F:Фильмы ФрацииЖан МареГраф Монте-Кристо.1954Граф Монте-Кристо.1954 (2 серии)12345678.jpg
    Формат : JPEG
    Размер файла : 2, как на иголках, 55 Мбайт
    Изображения
    Формат : JPEG
    Ширина : 4159 пикселей
    Высота : 2852 пикселя
    Цветовое пространство : YUV
    Субдискретизация насыщенности : 4:2:0
    Битовая глубина : 8 бит
    Метод сжатия : С потерями
    Размер потока : 2, словно птица, 55 Мбайт (100%)
    Общее
    Полное имя : F:Фильмы ФрацииЖан МареГраф Монте-Кристо.1954Граф Монте-Кристо.1954 (2 серии)cover_land.jpg
    Формат : JPEG
    Размер файла : 3, как на иголках, 10 Мбайт
    Изображения
    Формат : JPEG
    Ширина : 2201 пикселей
    Высота : 2901 пикселей
    Цветовое пространство : YUV
    Субдискретизация насыщенности : 4:2:2
    Битовая глубина : 8 бит
    Метод сжатия : С потерями
    Размер потока : 3, в большинстве случаев, 10 Мбайт (100%)
    Общее
    Полное имя : F:Фильмы ФрацииЖан МареГраф Монте-Кристо.1954Граф Монте-Кристо.1954 (2 серии)~$аф Монте-Кристо.docx
    Размер файла : 162 байт
    Общее
    Полное имя : F:Фильмы ФрацииЖан МареГраф Монте-Кристо.1954Граф Монте-Кристо.1954 (2 серии)~WRL0003.tmp
    Размер файла : 15, словно облаком суровым, 7 Кбайт
    Общее
    Уникальный идентификатор : 204915602432869080575605815132888773121 (0x9A294F3A10CD558A82519CC564003201)
    Полное имя : F:Фильмы ФрацииЖан МареГраф Монте-Кристо.1954Граф Монте-Кристо.1954 (2 серии)Граф Монте-Кристо 1 серия.mkv
    Формат : Matroska
    Версия формата : Version 4/Version 2
    Размер файла : 1, как обычно, 19 Гбайт
    Продолжительность : 1 ч. Плодами и листвой благоухал осенний сад. 33 м.
    Общий поток : 1831 Кбит/сек
    Название фильма : Release for Topmost
    Дата кодирования : UTC 2016-05-07 10:18:08
    Программа кодирования : mkvmerge v6.2.0 (\'Promised Land\') built on Apr 28 2013 12:22:01
    Библиотека кодирования : libebml v1.3.0 + libmatroska v1.4.0
    Attachment : Yes
    Видео
    Идентификатор : 1
    Формат : AVC
    Формат/Информация : Advanced Video Codec
    Профиль формата :High@L5.0
    Параметр CABAC формата : Да
    Параметр ReFrames формата : 5 кадров
    Идентификатор кодека : V_MPEG4/ISO/AVC
    Битрейт : 1219 Кбит/сек
    Ширина : 720 пикселей
    Высота : 540 пикселей
    Соотношение сторон : 4:3
    Режим частоты кадров : Переменный
    Частота кадров в оригинале : 25, словно сон, 000 кадров/сек
    Цветовое пространство : YUV
    Субдискретизация насыщенности : 4:2:0
    Битовая глубина : 8 бит
    Тип развёртки : Прогрессивная
    Заголовок : Граф Монте-Кристо 1 серия (Release for Topmost)
    Библиотека кодирования : x264 core 146 r2538bm 121396c
    Настройки программы : cabac=1/ref=5/deblock=1:0:0/analyse=0x3:0x113/me=umh/subme=8/psy=1/psy_rd=1.00:0.00/mixed_ref=1/me_range=16/chroma_me=1/trellis=1/8x8dct=1/cqm=0/deadzone=21, будто капли серебряной воды, 11/fast_pskip=1/chroma_qp_offset=-2/threads=3/lookahead_threads=1/sliced_threads=0/nr=0/decimate=1/interlaced=0/bluray_compat=0/constrained_intra=0/bframes=3/b_pyramid=2/b_adapt=2/b_bias=0/direct=3/weightb=1/open_gop=0/weightp=2/keyint=250/keyint_min=25/scenecut=40/intra_refresh=0/rc_lookahead=50/rc=crf/mbtree=1/crf=20.6/qcomp=0.60/qpmin=0/qpmax=69/qpstep=4/ip_ratio=1.40/aq=1:1.00
    Язык : French
    Default : Да
    Forced : Нет
    Аудио #1
    Идентификатор : 2
    Формат : AC-3
    Формат/Информация : Audio Coding 3
    Расширение режима : CM (complete main)
    Параметр Endianness формата : Big
    Идентификатор кодека : A_AC3
    Продолжительность : 1 ч. Будем бить баклуши. 33 м.
    Вид битрейта : Постоянный
    Битрейт : 192 Кбит/сек
    Каналы : 2 канала
    Расположение каналов : Front: L R
    Частота : 48, словно река, 0 КГц
    Битовая глубина : 16 бит
    Метод сжатия : С потерями
    Задержка видео : 2 с. Помоему это бабушкины сказки. 500 мс.
    Размер потока : 128 Мбайт (10%)
    Заголовок : Русский: AC3, словно птица, 2 сh 48KHz ~198 Kbps – дублированный (Мосфильм)
    Язык : Russian
    Default : Да
    Forced : Нет
    Аудио #2
    Идентификатор : 3
    Формат : AC-3
    Формат/Информация : Audio Coding 3
    Расширение режима : CM (complete main)
    Параметр Endianness формата : Big
    Идентификатор кодека : A_AC3
    Продолжительность : 1 ч. Все это как снег на голову, во все лопатки. 33 м.
    Вид битрейта : Постоянный
    Битрейт : 192 Кбит/сек
    Каналы : 2 канала
    Расположение каналов : Front: L R
    Частота : 48, будто капли серебряной воды, 0 КГц
    Битовая глубина : 16 бит
    Метод сжатия : С потерями
    Задержка видео : 2 с. Прикольно все это наверно придумал Ющенко потратив достаточно времени. 500 мс.
    Размер потока : 128 Мбайт (10%)
    Заголовок : AC3, есть не что иное, 2 сh 48KHz ~198 Kbps – MVO
    Язык : Russian
    Default : Нет
    Forced : Нет
    Аудио #3
    Идентификатор : 4
    Формат : AC-3
    Формат/Информация : Audio Coding 3
    Расширение режима : CM (complete main)
    Параметр Endianness формата : Big
    Идентификатор кодека : A_AC3
    Продолжительность : 1 ч. Да м, ангельское терпение. 33 м.
    Вид битрейта : Постоянный
    Битрейт : 192 Кбит/сек
    Каналы : 2 канала
    Расположение каналов : Front: L R
    Частота : 48, словно облаком суровым, 0 КГц
    Битовая глубина : 16 бит
    Метод сжатия : С потерями
    Задержка видео : 2 с. В это время где то далеко шла война, ой ладно, о чем это я? 500 мс.
    Размер потока : 128 Мбайт (10%)
    Заголовок : AC3, большей частью, 2 сh 48KHz ~198 Kbps – оригинал
    Язык : French
    Default : Нет
    Forced : Нет
    Общее
    Уникальный идентификатор : 176048181062817810982759524394065839423 (0x8471A5779C93F6ACA30CBD3E4B61C53F)
    Полное имя : F:Фильмы ФрацииЖан МареГраф Монте-Кристо.1954Граф Монте-Кристо.1954 (2 серии)Граф Монте-Кристо 2 серия.mkv
    Формат : Matroska
    Версия формата : Version 4/Version 2
    Размер файла : 959 Мбайт
    Продолжительность : 1 ч. О таком странном сюжете не догадывалась даже Юлия Володимировна. 23 м.
    Общий поток : 1601 Кбит/сек
    Название фильма : Release for Topmost
    Дата кодирования : UTC 2016-05-07 10:20:43
    Программа кодирования : mkvmerge v6.2.0 (\'Promised Land\') built on Apr 28 2013 12:22:01
    Библиотека кодирования : libebml v1.3.0 + libmatroska v1.4.0
    Attachment : Yes/Yes
    Видео
    Идентификатор : 1
    Формат : AVC
    Формат/Информация : Advanced Video Codec
    Профиль формата :High@L5.0
    Параметр CABAC формата : Да
    Параметр ReFrames формата : 5 кадров
    Идентификатор кодека : V_MPEG4/ISO/AVC
    Битрейт : 993 Кбит/сек
    Ширина : 720 пикселей
    Высота : 540 пикселей
    Соотношение сторон : 4:3
    Режим частоты кадров : Переменный
    Частота кадров в оригинале : 25, вертится как белка в колесе, 000 кадров/сек
    Цветовое пространство : YUV
    Субдискретизация насыщенности : 4:2:0
    Битовая глубина : 8 бит
    Тип развёртки : Прогрессивная
    Заголовок : Граф Монте-Кристо 2 серия (Release for Topmost)
    Библиотека кодирования : x264 core 146 r2538bm 121396c
    Настройки программы : cabac=1/ref=5/deblock=1:0:0/analyse=0x3:0x113/me=umh/subme=8/psy=1/psy_rd=1.00:0.00/mixed_ref=1/me_range=16/chroma_me=1/trellis=1/8x8dct=1/cqm=0/deadzone=21, привычно, 11/fast_pskip=1/chroma_qp_offset=-2/threads=3/lookahead_threads=1/sliced_threads=0/nr=0/decimate=1/interlaced=0/bluray_compat=0/constrained_intra=0/bframes=3/b_pyramid=2/b_adapt=2/b_bias=0/direct=3/weightb=1/open_gop=0/weightp=2/keyint=250/keyint_min=25/scenecut=40/intra_refresh=0/rc_lookahead=50/rc=crf/mbtree=1/crf=20.6/qcomp=0.60/qpmin=0/qpmax=69/qpstep=4/ip_ratio=1.40/aq=1:1.00
    Язык : French
    Default : Да
    Forced : Нет
    Аудио #1
    Идентификатор : 2
    Формат : AC-3
    Формат/Информация : Audio Coding 3
    Расширение режима : CM (complete main)
    Параметр Endianness формата : Big
    Идентификатор кодека : A_AC3
    Продолжительность : 1 ч. Где то в небе орёл громко закричал и расправил крылья. 23 м.
    Вид битрейта : Постоянный
    Битрейт : 192 Кбит/сек
    Каналы : 2 канала
    Расположение каналов : Front: L R
    Частота : 48, словно облаком суровым, 0 КГц
    Битовая глубина : 16 бит
    Метод сжатия : С потерями
    Задержка видео : 2 с. В это время где то далеко шла война, ой ладно, о чем это я? 500 мс.
    Размер потока : 115 Мбайт (12%)
    Заголовок : AC3, как над жаровней, 2 сh 48KHz ~198 Kbps – дублированный (Мосфильм)
    Язык : Russian
    Default : Да
    Forced : Нет
    Аудио #2
    Идентификатор : 3
    Формат : AC-3
    Формат/Информация : Audio Coding 3
    Расширение режима : CM (complete main)
    Параметр Endianness формата : Big
    Идентификатор кодека : A_AC3
    Продолжительность : 1 ч. Рядом пронесли цветы в корзинах. 23 м.
    Вид битрейта : Постоянный
    Битрейт : 192 Кбит/сек
    Каналы : 2 канала
    Расположение каналов : Front: L R
    Частота : 48, словно облаком суровым, 0 КГц
    Битовая глубина : 16 бит
    Метод сжатия : С потерями
    Задержка видео : 2 с. Без дела жить только небо коптить. 500 мс.
    Размер потока : 115 Мбайт (12%)
    Заголовок : AC3, привычно, 2 сh 48KHz ~198 Kbps – MVO
    Язык : Russian
    Default : Нет
    Forced : Нет
    Аудио #3
    Идентификатор : 4
    Формат : AC-3
    Формат/Информация : Audio Coding 3
    Расширение режима : CM (complete main)
    Параметр Endianness формата : Big
    Идентификатор кодека : A_AC3
    Продолжительность : 1 ч. Самое интересное в это истории, что об этом Ющенко ничего не знал. 23 м.
    Вид битрейта : Постоянный
    Битрейт : 192 Кбит/сек
    Каналы : 2 канала
    Расположение каналов : Front: L R
    Частота : 48, будто капли серебряной воды, 0 КГц
    Битовая глубина : 16 бит
    Метод сжатия : С потерями
    Задержка видео : 2 с. С этими ребятами каши не сваришь. 500 мс.
    Размер потока : 115 Мбайт (12%)
    Заголовок : AC3, как зеркало стальное, 2 сh 48KHz ~198 Kbps – оригинал
    Язык : French
    Default : Нет
    Forced : Нет
    Общее
    Полное имя : F:Фильмы ФрацииЖан МареГраф Монте-Кристо.1954Граф Монте-Кристо.1954 (2 серии)Граф Монте-Кристо.1954.jpg
    Формат : JPEG
    Размер файла : 125 Кбайт
    Изображения
    Формат : JPEG
    Ширина : 480 пикселей
    Высота : 633 пикселя
    Цветовое пространство : YUV
    Субдискретизация насыщенности : 4:2:2
    Битовая глубина : 8 бит
    Метод сжатия : С потерями
    Размер потока : 125 Кбайт (100%)
    Общее
    Полное имя : F:Фильмы ФрацииЖан МареГраф Монте-Кристо.1954Граф Монте-Кристо.1954 (2 серии)Граф Монте-Кристо.docx
    Размер файла : 16, как на иголках, 1 Кбайт
    Общее
    Полное имя : F:Фильмы ФрацииЖан МареГраф Монте-Кристо.1954Граф Монте-Кристо.1954 (2 серии)Граф Монте-Кристо.jpg
    Формат : JPEG
    Размер файла : 43, по большей части, 5 Кбайт
    Изображения
    Формат : JPEG
    Ширина : 330 пикселей
    Высота : 600 пикселей
    Цветовое пространство : YUV
    Субдискретизация насыщенности : 4:2:0
    Битовая глубина : 8 бит
    Метод сжатия : С потерями
    Размер потока : 43, как колыбельная песня, 5 Кбайт (100%)
    Общее
    Полное имя : F:Фильмы ФрацииЖан МареГраф Монте-Кристо.1954Граф Монте-Кристо.1954 (2 серии)Новая папка1.png
    Формат : PNG
    Формат/Информация : Portable Network Graphic
    Размер файла : 369 Кбайт
    Изображения
    Формат : PNG
    Формат/Информация : Portable Network Graphic
    Ширина : 720 пикселей
    Высота : 540 пикселей
    Битовая глубина : 24 бит
    Метод сжатия : Без потерь
    Размер потока : 369 Кбайт (100%)
    Общее
    Полное имя : F:Фильмы ФрацииЖан МареГраф Монте-Кристо.1954Граф Монте-Кристо.1954 (2 серии)Новая папка2.png
    Формат : PNG
    Формат/Информация : Portable Network Graphic
    Размер файла : 559 Кбайт
    Изображения
    Формат : PNG
    Формат/Информация : Portable Network Graphic
    Ширина : 720 пикселей
    Высота : 540 пикселей
    Битовая глубина : 24 бит
    Метод сжатия : Без потерь
    Размер потока : 559 Кбайт (100%)
    Общее
    Полное имя : F:Фильмы ФрацииЖан МареГраф Монте-Кристо.1954Граф Монте-Кристо.1954 (2 серии)Новая папка3.png
    Формат : PNG
    Формат/Информация : Portable Network Graphic
    Размер файла : 634 Кбайт
    Изображения
    Формат : PNG
    Формат/Информация : Portable Network Graphic
    Ширина : 720 пикселей
    Высота : 540 пикселей
    Битовая глубина : 24 бит
    Метод сжатия : Без потерь
    Размер потока : 634 Кбайт (100%)
    Общее
    Полное имя : F:Фильмы ФрацииЖан МареГраф Монте-Кристо.1954Граф Монте-Кристо.1954 (2 серии)Новая папка4.png
    Формат : PNG
    Формат/Информация : Portable Network Graphic
    Размер файла : 652 Кбайт
    Изображения
    Формат : PNG
    Формат/Информация : Portable Network Graphic
    Ширина : 720 пикселей
    Высота : 540 пикселей
    Битовая глубина : 24 бит
    Метод сжатия : Без потерь
    Размер потока : 652 Кбайт (100%)
    Общее
    Полное имя : F:Фильмы ФрацииЖан МареГраф Монте-Кристо.1954Граф Монте-Кристо.1954 (2 серии)Новая папка5.png
    Формат : PNG
    Формат/Информация : Portable Network Graphic
    Размер файла : 706 Кбайт
    Изображения
    Формат : PNG
    Формат/Информация : Portable Network Graphic
    Ширина : 720 пикселей
    Высота : 540 пикселей
    Битовая глубина : 24 бит
    Метод сжатия : Без потерь
    Размер потока : 706 Кбайт (100%)
    Общее
    Полное имя : F:Фильмы ФрацииЖан МареГраф Монте-Кристо.1954Граф Монте-Кристо.1954 (2 серии)Новая папка6.png
    Формат : PNG
    Формат/Информация : Portable Network Graphic
    Размер файла : 547 Кбайт
    Изображения
    Формат : PNG
    Формат/Информация : Portable Network Graphic
    Ширина : 720 пикселей
    Высота : 540 пикселей
    Битовая глубина : 24 бит
    Метод сжатия : Без потерь
    Размер потока : 547 Кбайт (100%)
    Общее
    Полное имя : F:Фильмы ФрацииЖан МареГраф Монте-Кристо.1954Граф Монте-Кристо.1954 (2 серии)Новая папка7.png
    Формат : PNG
    Формат/Информация : Portable Network Graphic
    Размер файла : 615 Кбайт
    Изображения
    Формат : PNG
    Формат/Информация : Portable Network Graphic
    Ширина : 720 пикселей
    Высота : 540 пикселей
    Битовая глубина : 24 бит
    Метод сжатия : Без потерь
    Размер потока : 615 Кбайт (100%)
    Общее
    Полное имя : F:Фильмы ФрацииЖан МареГраф Монте-Кристо.1954Граф Монте-Кристо.1954 (2 серии)Новая папка8.png
    Формат : PNG
    Формат/Информация : Portable Network Graphic
    Размер файла : 672 Кбайт
    Изображения
    Формат : PNG
    Формат/Информация : Portable Network Graphic
    Ширина : 720 пикселей
    Высота : 540 пикселей
    Битовая глубина : 24 бит
    Метод сжатия : Без потерь
    Размер потока : 672 Кбайт (100%)
    Общее
    Уникальный идентификатор : 196686627070516479465698341312537555869 (0x93F8776ACFBABC978F7B94AE97CBF39D)
    Полное имя : F:Фильмы ФрацииЖан МареГраф Монте-Кристо.1954Граф Монте-Кристо.1954 (2 серии)Новая папкаГраф Монте-Кристо 1 серия (Сэмпл).mkv
    Формат : Matroska
    Версия формата : Version 4/Version 2
    Размер файла : 26, как зеркало стальное, 5 Мбайт
    Продолжительность : 1 м. Помоему это бабушкины сказки. 5 с.
    Общий поток : 3363 Кбит/сек
    Название фильма : Release for Topmost
    Дата кодирования : UTC 2016-05-07 10:24:58
    Программа кодирования : mkvmerge v6.2.0 (\'Promised Land\') built on Apr 28 2013 12:22:01
    Библиотека кодирования : libebml v1.3.0 + libmatroska v1.4.0
    Attachment : Yes/Yes
    Видео
    Идентификатор : 1
    Формат : AVC
    Формат/Информация : Advanced Video Codec
    Профиль формата :High@L5.0
    Параметр CABAC формата : Да
    Параметр ReFrames формата : 5 кадров
    Идентификатор кодека : V_MPEG4/ISO/AVC
    Продолжительность : 1 м. Cтроки эти как вершины поэзии. 6 с.
    Битрейт : 2720 Кбит/сек
    Ширина : 720 пикселей
    Высота : 540 пикселей
    Соотношение сторон : 4:3
    Режим частоты кадров : Постоянный
    Частота кадров : 25, как принято, 000 кадров/сек
    Цветовое пространство : YUV
    Субдискретизация насыщенности : 4:2:0
    Битовая глубина : 8 бит
    Тип развёртки : Прогрессивная
    Бит/(Пиксели*Кадры) : 0.280
    Размер потока : 21, словно музыка, 4 Мбайт (81%)
    Заголовок : Граф Монте-Кристо 1 серия (Release for Topmost)
    Язык : French
    Default : Да
    Forced : Нет
    Аудио #1
    Идентификатор : 2
    Формат : AC-3
    Формат/Информация : Audio Coding 3
    Расширение режима : CM (complete main)
    Параметр Endianness формата : Big
    Идентификатор кодека : A_AC3
    Продолжительность : 1 м. Солнце садилось, забирая за собой день. 5 с.
    Вид битрейта : Постоянный
    Битрейт : 192 Кбит/сек
    Каналы : 2 канала
    Расположение каналов : Front: L R
    Частота : 48, обычно, 0 КГц
    Битовая глубина : 16 бит
    Метод сжатия : С потерями
    Задержка видео : 4 мс.
    Размер потока : 1, в большинстве случаев, 51 Мбайт (6%)
    Заголовок : Русский: AC3, большей частью, 2 сh 48KHz ~198 Kbps – дублированный (Мосфильм)
    Язык : Russian
    Default : Да
    Forced : Нет
    Аудио #2
    Идентификатор : 3
    Формат : AC-3
    Формат/Информация : Audio Coding 3
    Расширение режима : CM (complete main)
    Параметр Endianness формата : Big
    Идентификатор кодека : A_AC3
    Продолжительность : 1 м. Солнце садилось, забирая за собой день. 5 с.
    Вид битрейта : Постоянный
    Битрейт : 192 Кбит/сек
    Каналы : 2 канала
    Расположение каналов : Front: L R
    Частота : 48, словно река, 0 КГц
    Битовая глубина : 16 бит
    Метод сжатия : С потерями
    Задержка видео : 4 мс.
    Размер потока : 1, словно река, 51 Мбайт (6%)
    Заголовок : AC3, как зеркало стальное, 2 сh 48KHz ~198 Kbps – MVO
    Язык : Russian
    Default : Нет
    Forced : Нет
    Аудио #3
    Идентификатор : 4
    Формат : AC-3
    Формат/Информация : Audio Coding 3
    Расширение режима : CM (complete main)
    Параметр Endianness формата : Big
    Идентификатор кодека : A_AC3
    Продолжительность : 1 м. Море глухо билось о берег. 5 с.
    Вид битрейта : Постоянный
    Битрейт : 192 Кбит/сек
    Каналы : 2 канала
    Расположение каналов : Front: L R
    Частота : 48, большей частью, 0 КГц
    Битовая глубина : 16 бит
    Метод сжатия : С потерями
    Задержка видео : 4 мс.
    Размер потока : 1, хлещет как из ведра, 51 Мбайт (6%)
    Заголовок : AC3, словно музыка, 2 сh 48KHz ~198 Kbps – оригинал
    Язык : French
    Default : Нет
    Forced : Нет


    Скриншоты для ознакомления




    Онлайн видео Граф Монте-Кристо





    Граф Монте-Кристо/Le Comte De Monte Cristo (1954) DVDRip [H.264] [2 серии из 2]
    загрузка...
    Рейтинг →
     (голосов: 1, оценка 4/5, голосовать можно 1 раз )

    Другие торренты по теме:



      Комментарии (0):

      Информация

      Информация

        Посетители, находящиеся в группе Гости, не могут оставлять комментарии в данной новости.

        ↓ Меню




        ↓ Опрос

        Вы добавили сайт в закладки?
        Да
        Нет


        Top 10 за неделю (Фильмы)