.
Авторизация | Регистрация
Хочешь лучшие торренты? Добавь свой email!
Добавить

Торрент скачать бесплатно

» » В поле зрения / Подозреваемый / Person of Interest (2016) WEB-DL [H.264 / 1080p -LQ] (сезон 5, серии 1 из 13) LostFilm (обновляемая) торрент скачать бесплатно




    В поле зрения / Подозреваемый / Person of Interest (2016) WEB-DL [H.264 / 1080p -LQ] (сезон 5, серии 1 из 13) LostFilm (обновляемая) торрент скачать бесплатно

    Опубликовал: Админ | Дата: 8-05-2016, 04:01 | Просмотров: 8

    Производство: США/Kilter Films, Bad Robot, Warner Bros. Television
    Жанр: боевик, триллер, драма, детектив
    Режиссер: Крис Фишер, Ричард Дж. Льюис, Фред Туа

    Актеры
    Джеймс Кэвизел, Майкл Эмерсон, Кевин Чэпмен, Эми Акер, Тараджи П. Хенсон, Сара Шахи, Джон Нолан, Энрико Колантони, Роберт Джон Бёрк, Ал Сапиенца и др.

    Описание фильма

    Финальный сезон любимого сериала популярного американского сериала о компьютерном гении Харольде Финче, разработавшем по заданию правительства специальную программу. Она способна выявлять информацию, приводящую к террористическим актам прежде, чем те произойдут. При этом машина умеет отличать информацию по двум категориям: более и менее важная. Однако Финч заметил, что признанные компьютером как нерелевантные данные часто приводят к другим тяжким преступлениям. Герой привлекает к сотрудничеству бывшего агента ЦРУ Джона Риза, числящегося мертвым после одного инцидента, и предлагает ему помочь предотвратить готовящееся, по его данным преступление.

    Продолжительность: ~00: 43: 00 серия
    Качество видео: WEB-DL 1080p
    Перевод: Многоголосый закадровый, профессиональный -LostFilm
    Вид субтитров: вшитые отключаемые
    Язык субтитров: английский
    Видео: H.264/AVC, 1912x1072 (16: 9), ~5000 kb/s
    Аудио Rus: AC-3, 48, 0 kHz, 2 ch, 384 kb/s — многоголосый закадровый
    Аудио Eng: AC-3, 48, 0 kHz, 6 ch, 384 kb/s — оригинал
    Код:
    Общее
    Уникальный идентификатор : 223369792785430635174243012855751994332 (0xA80B750EF8CF5FE79866D9CA71CB6BDC)
    Полное имя : D:В поле зрения (сезон любимого сериала 5) Person of Interest (2016) WEB-DL 1080p - LostFilmPerson.of.Interest.S05E01.WEB-DL1080p.Rus.Eng.DV.LostFilm.mkv
    Формат : Matroska
    Версия формата : Version 4/Version 2
    Размер файла : 1, 76 Гбайт
    Продолжительность : 43 м.
    Общий поток : 5769 Кбит/сек
    Название фильма : Person.of.Interest.S05E01.WEB-DL1080p.Rus.Eng.DV.LostFilm/NNM-Club
    Дата кодирования : UTC 2016-05-07 20:43:30
    Программа кодирования : mkvmerge v8.2.0 (\'World of Adventure\') 64bit
    Библиотека кодирования : libebml v1.3.1 + libmatroska v1.4.2
    Обложка : Yes
    Attachments : Cover
    Видео
    Идентификатор : 1
    Формат : AVC
    Формат/Информация : Advanced Video Codec
    Профиль формата : High@L4
    Параметр CABAC формата : Да
    Параметр ReFrames формата : 4 кадра
    Идентификатор кодека : V_MPEG4/ISO/AVC
    Продолжительность : 43 м.
    Битрейт : 4998 Кбит/сек
    Ширина : 1912 пикселей
    Высота : 1072 пикселя
    Соотношение сторон : 16:9
    Режим частоты кадров : Постоянный
    Частота кадров : 23, 976 (23976/1000) кадра/сек
    Цветовое пространство : YUV
    Субдискретизация насыщенности : 4:2:0
    Битовая глубина : 8 бит
    Тип развёртки : Прогрессивная
    Бит/(Пиксели*Кадры) : 0.102
    Размер потока : 1, 52 Гбайт (87%)
    Язык : English
    Default : Да
    Forced : Нет
    Цветовой диапазон : Limited
    Основные цвета : BT.709
    Характеристики трансфера : BT.709
    Коэффициенты матрицы : BT.709
    Аудио #1
    Идентификатор : 2
    Формат : AC-3
    Формат/Информация : Audio Coding 3
    Расширение режима : CM (complete main)
    Параметр Endianness формата : Big
    Идентификатор кодека : A_AC3
    Продолжительность : 43 м.
    Вид битрейта : Постоянный
    Битрейт : 384 Кбит/сек
    Каналы : 2 канала
    Расположение каналов : Front: L R
    Частота : 48, 0 КГц
    Частота кадров : 31, 250 кадров/сек (1536 spf)
    Метод сжатия : С потерями
    Размер потока : 120 Мбайт (7%)
    Заголовок : LostFilm
    Язык : Russian
    Default : Да
    Forced : Нет
    Аудио #2
    Идентификатор : 3
    Формат : AC-3
    Формат/Информация : Audio Coding 3
    Расширение режима : CM (complete main)
    Параметр Endianness формата : Big
    Идентификатор кодека : A_AC3
    Продолжительность : 43 м.
    Вид битрейта : Постоянный
    Битрейт : 384 Кбит/сек
    Каналы : 6 каналов
    Расположение каналов : Front: L C R, Side: L R, LFE
    Частота : 48, 0 КГц
    Частота кадров : 31, 250 кадров/сек (1536 spf)
    Метод сжатия : С потерями
    Размер потока : 120 Мбайт (7%)
    Язык : English
    Default : Нет
    Forced : Нет
    Текст
    Идентификатор : 4
    Формат : UTF-8
    Идентификатор кодека : S_TEXT/UTF8
    Идентификатор кодека/Информация : UTF-8 Plain Text
    Продолжительность : 43 м.
    Битрейт : 82 бит/сек
    Count of elements : 903
    Размер потока : 26, 2 Кбайт (0%)
    Язык : English
    Default : Нет
    Forced : Нет


    Скриншоты для ознакомления




    Онлайн видео В поле зрения



    В поле зрения/Подозреваемый/Person of Interest (2016) WEB-DL [H.264/1080p -LQ] (сезон 5, серии 1 из 13) LostFilm (обновляемая)
    загрузка...
    Рейтинг →
     (голосов: 1, оценка 5/5, голосовать можно 1 раз )

    Другие торренты по теме:

  • В поле зрения / Person of Interest (2014) WEB-DL [H.264 / 720p-LQ] (Сезон 4, Серии 1 из 22) (NewStudio) (Обновляемая)
  • В поле зрения / Подозреваемый / Person of Interest (2014) WEB-DLRip (сезон 4, серии 1 из ) NewStudio (Обновляемая)
  • В поле зрения / Подозреваемый / Person of Interest (2014) WEB-DL [H.264 / 720p-LQ] (Сезон 4, серия 1 из ) (LostFilm) (обновляемая)
  • В поле зрения / Подозреваемый / Person of Interest (2014) WEB-DLRip (сезон 4, серии 1 из ) LostFilm (Обновляемая)
  • В поле зрения (Подозреваемый) (Person of Interest) / (Сезон 1-4, серии 1-70 из 90) LostFilm (2011-2014) [MP4|720x400] <WEB-DLRip [H.264]> скачать через торрент бесплатно
  • Подозреваемые / В поле зрения / Person of Interest (2014) WEB-DL [H.264 / 1080p-LQ] (сезон 4, серии 1-15 из 22) (NewStudio) (обновляемая)
  • В поле зрения / Подозреваемый / Person of Interest (2014) WEB-DLRip (сезон 4, серии 1-19 из 22) NewStudio (обновляемая) скачать через торрент бесплатно
  • В поле зрения / Подозреваемый / Person of Interest (2014) WEB-DLRip (сезон 4, серии 1-19 из 22) LostFilm (обновляемая) скачать через торрент бесплатно


    • Комментарии (0):

      Информация

      Информация

        Посетители, находящиеся в группе Гости, не могут оставлять комментарии в данной новости.

        ↓ Меню




        ↓ Опрос

        Вы добавили сайт в закладки?
        Да
        Нет


        Top 10 за месяц (Фильмы)