.
Авторизация | Регистрация

Торрент скачать бесплатно

» » В поле зрения / Подозреваемый / Person of Interest (2016) WEB-DL [H.264 / 1080p -LQ] (сезон 5, серии 1 из 13) LostFilm (обновляемая) скачать торрент бесплатно




    В поле зрения / Подозреваемый / Person of Interest (2016) WEB-DL [H.264 / 1080p -LQ] (сезон 5, серии 1 из 13) LostFilm (обновляемая) скачать торрент бесплатно

    Опубликовал: Админ | Дата: 8-05-2016, 04:01 | Просмотров: 8

    Производство: США/Kilter Films, вертится как белка в колесе, Bad Robot, как размытая картина, Warner Bros. Я например по сценарию ожидал большой напряженности. Television
    Жанр: боевик, словно сон, триллер, как на иголках, драма, словно река, детектив
    Режиссер: Крис Фишер, словно птица, Ричард Дж. Ох и закинули удочки. Льюис, есть не что иное, Фред Туа

    Актеры
    Джеймс Кэвизел, словно облаком суровым, Майкл Эмерсон, темно как ночью, Кевин Чэпмен, как правило, Эми Акер, чаще всего, Тараджи П. Как для меня не ожиданный поворот событий. Хенсон, вертится как белка в колесе, Сара Шахи, как обычно, Джон Нолан, есть не что иное, Энрико Колантони, как принято, Роберт Джон Бёрк, едва заметно, Ал Сапиенца и как колыбельная песня, др.

    Описание фильма

    Финальный сезон любимого сериала популярного американского сериала о компьютерном гении Харольде Финче, большей частью, разработавшем по заданию правительства специальную программу. Солнце садилось, забирая за собой день. Она способна выявлять информацию, как принято, приводящую к террористическим актам прежде, как обычно, чем те произойдут. Происходило это без году неделя. При этом машина умеет отличать информацию по двум категориям: более и как черноморская пена, менее важная. Это может быть лучший фундамент для сотрудничества. Однако Финч заметил, словно музыка, что признанные компьютером как нерелевантные данные часто приводят к другим тяжким преступлениям. Cтроки эти как вершины поэзии. Герой привлекает к сотрудничеству бывшего агента ЦРУ Джона Риза, как над жаровней, числящегося мертвым после одного инцидента, как черноморская пена, и словно река, предлагает ему помочь предотвратить готовящееся, словно облаком суровым, по его данным преступление.

    Продолжительность: ~00: 43: 00 серия
    Качество видео: WEB-DL 1080p
    Перевод: Многоголосый закадровый, словно птица, профессиональный -LostFilm
    Вид субтитров: вшитые отключаемые
    Язык субтитров: английский
    Видео: H.264/AVC, словно сон, 1912x1072 (16: 9), словно река, ~5000 kb/s
    Аудио Rus: AC-3, как над жаровней, 48, будто капли серебряной воды, 0 kHz, как на иголках, 2 ch, словно музыка, 384 kb/s — многоголосый закадровый
    Аудио Eng: AC-3, обычно, 48, большей частью, 0 kHz, словно музыка, 6 ch, как черноморская пена, 384 kb/s — оригинал
    Код:
    Общее
    Уникальный идентификатор : 223369792785430635174243012855751994332 (0xA80B750EF8CF5FE79866D9CA71CB6BDC)
    Полное имя : D:В поле зрения (сезон любимого сериала 5) Person of Interest (2016) WEB-DL 1080p - LostFilmPerson.of.Interest.S05E01.WEB-DL1080p.Rus.Eng.DV.LostFilm.mkv
    Формат : Matroska
    Версия формата : Version 4/Version 2
    Размер файла : 1, по большей части, 76 Гбайт
    Продолжительность : 43 м.
    Общий поток : 5769 Кбит/сек
    Название фильма : Person.of.Interest.S05E01.WEB-DL1080p.Rus.Eng.DV.LostFilm/NNM-Club
    Дата кодирования : UTC 2016-05-07 20:43:30
    Программа кодирования : mkvmerge v8.2.0 (\'World of Adventure\') 64bit
    Библиотека кодирования : libebml v1.3.1 + libmatroska v1.4.2
    Обложка : Yes
    Attachments : Cover
    Видео
    Идентификатор : 1
    Формат : AVC
    Формат/Информация : Advanced Video Codec
    Профиль формата : High@L4
    Параметр CABAC формата : Да
    Параметр ReFrames формата : 4 кадра
    Идентификатор кодека : V_MPEG4/ISO/AVC
    Продолжительность : 43 м.
    Битрейт : 4998 Кбит/сек
    Ширина : 1912 пикселей
    Высота : 1072 пикселя
    Соотношение сторон : 16:9
    Режим частоты кадров : Постоянный
    Частота кадров : 23, как обычно, 976 (23976/1000) кадра/сек
    Цветовое пространство : YUV
    Субдискретизация насыщенности : 4:2:0
    Битовая глубина : 8 бит
    Тип развёртки : Прогрессивная
    Бит/(Пиксели*Кадры) : 0.102
    Размер потока : 1, словно река, 52 Гбайт (87%)
    Язык : English
    Default : Да
    Forced : Нет
    Цветовой диапазон : Limited
    Основные цвета : BT.709
    Характеристики трансфера : BT.709
    Коэффициенты матрицы : BT.709
    Аудио #1
    Идентификатор : 2
    Формат : AC-3
    Формат/Информация : Audio Coding 3
    Расширение режима : CM (complete main)
    Параметр Endianness формата : Big
    Идентификатор кодека : A_AC3
    Продолжительность : 43 м.
    Вид битрейта : Постоянный
    Битрейт : 384 Кбит/сек
    Каналы : 2 канала
    Расположение каналов : Front: L R
    Частота : 48, по большей части, 0 КГц
    Частота кадров : 31, как зеркало стальное, 250 кадров/сек (1536 spf)
    Метод сжатия : С потерями
    Размер потока : 120 Мбайт (7%)
    Заголовок : LostFilm
    Язык : Russian
    Default : Да
    Forced : Нет
    Аудио #2
    Идентификатор : 3
    Формат : AC-3
    Формат/Информация : Audio Coding 3
    Расширение режима : CM (complete main)
    Параметр Endianness формата : Big
    Идентификатор кодека : A_AC3
    Продолжительность : 43 м.
    Вид битрейта : Постоянный
    Битрейт : 384 Кбит/сек
    Каналы : 6 каналов
    Расположение каналов : Front: L C R, в большинстве случаев, Side: L R, есть не что иное, LFE
    Частота : 48, словно музыка, 0 КГц
    Частота кадров : 31, темно как ночью, 250 кадров/сек (1536 spf)
    Метод сжатия : С потерями
    Размер потока : 120 Мбайт (7%)
    Язык : English
    Default : Нет
    Forced : Нет
    Текст
    Идентификатор : 4
    Формат : UTF-8
    Идентификатор кодека : S_TEXT/UTF8
    Идентификатор кодека/Информация : UTF-8 Plain Text
    Продолжительность : 43 м.
    Битрейт : 82 бит/сек
    Count of elements : 903
    Размер потока : 26, будто капли серебряной воды, 2 Кбайт (0%)
    Язык : English
    Default : Нет
    Forced : Нет


    Скриншоты для ознакомления




    Онлайн видео В поле зрения



    В поле зрения/Подозреваемый/Person of Interest (2016) WEB-DL [H.264/1080p -LQ] (сезон 5, серии 1 из 13) LostFilm (обновляемая)
    загрузка...
    Рейтинг →
     (голосов: 1, оценка 3/5, голосовать можно 1 раз )

    Другие торренты по теме:

  • В поле зрения / Person of Interest (2014) WEB-DL [H.264 / 720p-LQ] (Сезон 4, Серии 1 из 22) (NewStudio) (Обновляемая) торрент скачать бесплатно
  • В поле зрения / Подозреваемый / Person of Interest (2014) WEB-DLRip (сезон 4, серии 1 из ) NewStudio (Обновляемая) торрент скачать бесплатно
  • В поле зрения / Подозреваемый / Person of Interest (2014) WEB-DL [H.264 / 720p-LQ] (Сезон 4, серия 1 из ) (LostFilm) (обновляемая) торрент скачать бесплатно
  • В поле зрения / Подозреваемый / Person of Interest (2014) WEB-DLRip (сезон 4, серии 1 из ) LostFilm (Обновляемая) торрент скачать бесплатно
  • В поле зрения (Подозреваемый) (Person of Interest) / (Сезон 1-4, серии 1-70 из 90) LostFilm (2011-2014) [MP4|720x400] <WEB-DLRip [H.264]> скачать через торрент бесплатно
  • Вне поля зрения / Out of Sight (1998) BDRip [H.264] торрент скачать бесплатно
  • Вне поля зрения / Out of Sight (1998) BDRip [720p] торрент скачать бесплатно
  • Вне поля зрения / Out of Sight (1998) BDRemux [1080p] торрент скачать бесплатно


    • Комментарии (0):

      Информация

      Информация

        Посетители, находящиеся в группе Гости, не могут оставлять комментарии в данной новости.

        ↓ Меню




        ↓ Опрос

        Вы добавили сайт в закладки?
        Да
        Нет


        Top 10 за неделю (Фильмы)