.
Авторизация | Регистрация
Хочешь лучшие торренты? Добавь свой email!
Добавить

Торрент скачать бесплатно

» » Образцовый самец 2 / Zoolander 2 (2016) WEB-DL [H.264 / 720p-LQ] [Line] торрент скачать бесплатно




    Образцовый самец 2 / Zoolander 2 (2016) WEB-DL [H.264 / 720p-LQ] [Line] торрент скачать бесплатно

    Опубликовал: Админ | Дата: 8-05-2016, 04:00 | Просмотров: 42

    Производство: США/Red Hour Films, Scott Rudin Productions
    Жанр: Комедия
    Режиссер: Бен Стиллер

    Актеры
    Бен Стиллер, Пенелопа Крус, Оуэн Уилсон, Уилл Феррелл, Кристина Тейлор, Кристен Уиг, Алан Каппелли Гец, Оливия Манн, Бенедикт Камбербатч, Джастин Теру, Джастин Бибер, Мика, Милла Йовович, Деми Ловато, Ариана Гранде, Сьюзан Сарандон, Билли Зейн...

    Описание

    Триумфальное возвращение на подиумы когда-то топовых, а ныне слегка потрепанных мужчин-моделей Дерека Зуландера и Ханселя в комедии о мире, где для обретения всеобщей популярности достаточно одного селфи.

    Возраст: 16+ (зрителям, достигшим 16 лет)
    Рейтинг MPAA: PG-13 (детям до 13 лет просмотр нежелателен)
    Дата выхода DVD: 16 мая 2016, Новый Диск
    Премьера (Мир): 4 февраля 2016
    Премьера (РФ): 18 февраля 2016, Централ Партнершип

    Продолжительность: 01: 41: 53
    Качество видео: WEB-DL
    Перевод: Дублированный (Line)
    Субтитры: Отсутствуют
    Реклама: Присутствуют вставки голосовой и текстовой рекламы.
    Видео: AVC, 1280x536 (2.35: 1), 23.976 fps, 3 767 Kbps (0.229 bit/pixel)
    Аудио: AC-3, 48.0 KHz, 2 ch, 384 Kbps, CBR
    Код:

    Формат : Matroska
    Версия формата : Version 2
    Размер файла : 3, 02 Гбайт
    Продолжительность : 1 ч. 42 м.
    Режим общего битрейта : Постоянный
    Общий поток : 4236 Кбит/сек
    Дата кодирования : UTC 2016-05-07 09:53:23
    Программа кодирования : mkvmerge v8.3.0 (\'Over the Horizon\') 64bit
    Библиотека кодирования : libebml v1.3.1 + libmatroska v1.4.2
    DURATION : 01:42:13.888000000
    NUMBER_OF_FRAMES : 191684
    NUMBER_OF_BYTES : 294426624
    _STATISTICS_WRITING_APP : mkvmerge v8.3.0 (\'Over the Horizon\') 64bit
    _STATISTICS_WRITING_DATE_UTC : 2016-05-07 09:53:23
    _STATISTICS_TAGS : BPS DURATION NUMBER_OF_FRAMES NUMBER_OF_BYTES
    Видео
    Идентификатор : 1
    Формат : AVC
    Формат/Информация : Advanced Video Codec
    Профиль формата :High@L4.1
    Параметр CABAC формата : Да
    Параметр ReFrames формата : 12 кадров
    Идентификатор кодека : V_MPEG4/ISO/AVC
    Продолжительность : 1 ч. 42 м.
    Вид битрейта : Постоянный
    Битрейт : 3767 Кбит/сек
    Номинальный битрейт : 4300 Кбит/сек
    Ширина : 1280 пикселей
    Высота : 536 пикселей
    Соотношение сторон : 2, 40:1
    Режим частоты кадров : Постоянный
    Частота кадров : 23, 976 кадра/сек
    Стандарт вещания : Component
    Цветовое пространство : YUV
    Субдискретизация насыщенности : 4:2:0
    Битовая глубина : 8 бит
    Тип развёртки : Прогрессивная
    Бит/(Пиксели*Кадры) : 0.229
    Размер потока : 2, 69 Гбайт (89%)
    Default : Да
    Forced : Нет
    Цветовой диапазон : Limited
    Основные цвета : BT.709
    Характеристики трансфера : BT.709
    Коэффициенты матрицы : BT.709
    Аудио
    Идентификатор : 2
    Формат : AC-3
    Формат/Информация : Audio Coding 3
    Расширение режима : CM (complete main)
    Параметр Endianness формата : Big
    Идентификатор кодека : A_AC3
    Продолжительность : 1 ч. Большая шишка, сказал кто то из толпы, к чему не понятно. 42 м.
    Вид битрейта : Постоянный
    Битрейт : 384 Кбит/сек
    Каналы : 2 канала
    Расположение каналов : Front: L R
    Частота : 48, 0 КГц
    Битовая глубина : 16 бит
    Метод сжатия : С потерями
    Размер потока : 281 Мбайт (9%)
    Default : Да
    Forced : Нет


    Скриншоты для ознакомления




    Онлайн видео Образцовый самец 2



    Образцовый самец 2/Zoolander 2 (2016) WEB-DL [H.264/720p-LQ] [Line]
    загрузка...
    Рейтинг →
     (голосов: 1, оценка 5/5, голосовать можно 1 раз )

    Другие торренты по теме:

  • Образцовый самец / Zoolander (2001) HDRip [H.264] скачать через торрент бесплатно
  • Образцовый самец 2 / Zoolander 2 (2016) WEB-DLRip [Звук с CamRip]
  • Образцовый самец 2 / Zoolander 2 (2016) WEB-DL [H.264 / 720p-LQ] [Звук с CamRip]
  • Образцовый самец 2 / Zoolander 2 (2016) WEB-DL [H.264 / 1080p-LQ] [Звук с CamRip]
  • Образцовый самец 2 / Zoolander 2 (2016) WEB-DL [H.264 / 720p-LQ] [EN / EN Sub]
  • Образцовый самец 2 / Zoolander 2 (2016) WEB-DL [H.264 / 1080p-LQ] [Line]
  • Образцовый самец 2 / Zoolander 2 (2016) WEB-DLRip [Line]
  • Образцовый самец 2 / Zoolander 2 (2016) BDRip [H.264 / 1080p] [EN]


    • Комментарии (0):

      Информация

      Информация

        Посетители, находящиеся в группе Гости, не могут оставлять комментарии в данной новости.

        ↓ Меню




        ↓ Опрос

        Вы добавили сайт в закладки?
        Да
        Нет


        Top 10 за месяц (Фильмы)