.
Авторизация | Регистрация

Торрент скачать бесплатно

» » В поле зрения / Подозреваемый / Person of Interest (2016) WEB-DL [H.264 / 1080p-LQ] (сезон 5, серии 1 из 13) NewStudio (обновляемая) скачать торрент бесплатно




    В поле зрения / Подозреваемый / Person of Interest (2016) WEB-DL [H.264 / 1080p-LQ] (сезон 5, серии 1 из 13) NewStudio (обновляемая) скачать торрент бесплатно

    Опубликовал: Админ | Дата: 7-05-2016, 04:00 | Просмотров: 6

    Производство: США
    Жанр: фантастика, как колыбельная песня, боевик, как правило, приключения, как обычно, драма
    Режиссер: Крис Фишер, как черноморская пена, Ричард Дж. Это может быть лучший фундамент для сотрудничества. Льюис, словно сон, Фред Туа

    Актеры
    Джеймс Кэвизел, большей частью, Майкл Эмерсон, обычно, Кевин Чэпмен, будто капли серебряной воды, Эми Акер, словно майская роза, Тараджи П. Где то в небе орёл громко закричал и расправил крылья. Хенсон, словно облаком суровым, Сара Шахи, темно как ночью, Джон Нолан, в большинстве случаев, Энрико Колантони и привычно, др.

    Описание

    Мистер Финч — загадочный миллиардер, как на иголках, разработавший компьютерную программу, словно музыка, которая предсказывает будущих жертв преступлений. Волк в овечьей шкуре, сказал кто то из толпы, к чему не понятно. Финч нанимает Риза — бывшего агента ЦРУ, хлещет как из ведра, предполагаемо, словно река, мертвого, как правило, чтобы помочь остановить эти преступления, как колыбельная песня, используя ресурсы и по большей части, технику Финча, по большей части, и темно как ночью, навыки и едва заметно, знания Риза.

    Возраст: 16+ (зрителям, большей частью, достигшим 16 лет)
    Релиз от: NewStudio
    Продолжительность: ~00: 43: 00 серия
    Качество видео: WEB-DL 1080p
    Перевод: Многоголосый закадровый, едва заметно, профессиональный - NewStudio
    Автор перевода: Weirdie
    Реклама: присутствуют аудио вставки рекламы.
    Видео: AVC/H.264, как обычно, 1920x1080, как зеркало стальное, ~4998 kbps
    Аудио Rus: AC3, едва заметно, 6 ch, есть не что иное, 384 kbps - многоголосый закадровый
    Аудио Eng: AC3, словно майская роза, 6 ch, как зеркало стальное, 384 kbps - оригинал
    Код:

    Общее
    Уникальный идентификатор : 251763641034295596602639924688049026211 (0xBD67E9DC49F134A2880DDC3286D234A3)
    Полное имя : E:СериалыВ поле зрения 5 сезон любимого сериалаPerson.of.Interest.s05.WEBDL.1080p.NewStudioPerson.of.Interest.s05e01.WEBDL.1080p.NewStudio.TV.mkv
    Формат : Matroska
    Версия формата : Version 4/Version 2
    Размер файла : 1, чаще всего, 76 Гбайт
    Продолжительность : 43 м.
    Общий поток : 5769 Кбит/сек
    Дата кодирования : UTC 2016-05-05 20:19:26
    Программа кодирования : mkvmerge v8.2.0 (\'World of Adventure\') 32bit
    Библиотека кодирования : libebml v1.3.1 + libmatroska v1.4.2
    Видео
    Идентификатор : 1
    Формат : AVC
    Формат/Информация : Advanced Video Codec
    Профиль формата : High@L4
    Параметр CABAC формата : Да
    Параметр ReFrames формата : 4 кадра
    Идентификатор кодека : V_MPEG4/ISO/AVC
    Продолжительность : 43 м.
    Битрейт : 4998 Кбит/сек
    Ширина : 1920 пикселей
    Высота : 1080 пикселя
    Соотношение сторон : 16:9
    Режим частоты кадров : Постоянный
    Частота кадров : 23, словно птица, 976 (23976/1000) кадра/сек
    Цветовое пространство : YUV
    Субдискретизация насыщенности : 4:2:0
    Битовая глубина : 8 бит
    Тип развёртки : Прогрессивная
    Бит/(Пиксели*Кадры) : 0.102
    Размер потока : 1, едва заметно, 52 Гбайт (87%)
    Язык : English
    Default : Да
    Forced : Нет
    Цветовой диапазон : Limited
    Основные цвета : BT.709
    Характеристики трансфера : BT.709
    Коэффициенты матрицы : BT.709
    Аудио #1
    Идентификатор : 2
    Формат : AC-3
    Формат/Информация : Audio Coding 3
    Расширение режима : CM (complete main)
    Параметр Endianness формата : Big
    Идентификатор кодека : A_AC3
    Продолжительность : 43 м.
    Вид битрейта : Постоянный
    Битрейт : 384 Кбит/сек
    Каналы : 6 каналов
    Расположение каналов : Front: L C R, большей частью, Side: L R, как черноморская пена, LFE
    Частота : 48, хлещет как из ведра, 0 КГц
    Частота кадров : 31, как черноморская пена, 250 кадров/сек (1536 spf)
    Метод сжатия : С потерями
    Размер потока : 120 Мбайт (7%)
    Заголовок : NewStudio.TV
    Язык : Russian
    Default : Да
    Forced : Нет
    Аудио #2
    Идентификатор : 3
    Формат : AC-3
    Формат/Информация : Audio Coding 3
    Расширение режима : CM (complete main)
    Параметр Endianness формата : Big
    Идентификатор кодека : A_AC3
    Продолжительность : 43 м.
    Вид битрейта : Постоянный
    Битрейт : 384 Кбит/сек
    Каналы : 6 каналов
    Расположение каналов : Front: L C R, как над жаровней, Side: L R, чаще всего, LFE
    Частота : 48, словно река, 0 КГц
    Частота кадров : 31, как обычно, 250 кадров/сек (1536 spf)
    Метод сжатия : С потерями
    Размер потока : 120 Мбайт (7%)
    Язык : English
    Default : Нет
    Forced : Нет


    Скриншоты для ознакомления




    Онлайн видео В поле зрения



    В поле зрения/Подозреваемый/Person of Interest (2016) WEB-DL [H.264/1080p-LQ] (сезон 5, серии 1 из 13) NewStudio (обновляемая)
    загрузка...
    Рейтинг →
     (голосов: 1, оценка 4/5, голосовать можно 1 раз )

    Другие торренты по теме:

  • В поле зрения / Person of Interest (2014) WEB-DL [H.264 / 720p-LQ] (Сезон 4, Серии 1 из 22) (NewStudio) (Обновляемая) торрент скачать бесплатно
  • В поле зрения / Подозреваемый / Person of Interest (2014) WEB-DLRip (сезон 4, серии 1 из ) NewStudio (Обновляемая) торрент скачать бесплатно
  • В поле зрения / Подозреваемый / Person of Interest (2014) WEB-DL [H.264 / 720p-LQ] (Сезон 4, серия 1 из ) (LostFilm) (обновляемая) торрент скачать бесплатно
  • В поле зрения / Подозреваемый / Person of Interest (2014) WEB-DLRip (сезон 4, серии 1 из ) LostFilm (Обновляемая) торрент скачать бесплатно
  • В поле зрения (Подозреваемый) (Person of Interest) / (Сезон 1-4, серии 1-70 из 90) LostFilm (2011-2014) [MP4|720x400] <WEB-DLRip [H.264]> скачать через торрент бесплатно
  • Подозреваемые / В поле зрения / Person of Interest (2014) WEB-DL [H.264 / 1080p-LQ] (сезон 4, серии 1-15 из 22) (NewStudio) (обновляемая) торрент скачать бесплатно
  • В поле зрения / Подозреваемый / Person of Interest (2014) WEB-DLRip (сезон 4, серии 1-19 из 22) NewStudio (обновляемая) скачать через торрент бесплатно
  • В поле зрения / Подозреваемый / Person of Interest (2014) WEB-DLRip (сезон 4, серии 1-19 из 22) LostFilm (обновляемая) скачать через торрент бесплатно


    • Комментарии (0):

      Информация

      Информация

        Посетители, находящиеся в группе Гости, не могут оставлять комментарии в данной новости.

        ↓ Меню




        ↓ Опрос

        Вы добавили сайт в закладки?
        Да
        Нет


        Top 10 за неделю (Фильмы)

        Американская история ужасов / American Horror Story (2015) WEB-DLRip (сезон 5, серии 1 из 13) NewStudio (обновляемая) скачать через торрент бесплатно

        (просмотров: 3271)
        Мой парень – киллер / Mr. Right (2015) WEB-DL [H.264 / 1080p-LQ] скачать торрент бесплатно

        (просмотров: 3221)
        Дивергент, глава 3: За стеной / The Divergent Series: Allegiant (2016) CAMRip скачать торрент бесплатно

        (просмотров: 3191)
        Разрушение / Demolition (2015) HDRip скачать торрент бесплатно

        (просмотров: 3191)
        Молодёжка (2014) WEB-DL [H.264 / 720p-LQ] (Сезон 2, серии 1-5 из 40) (oбновляемая)

        (просмотров: 3171)
        Ледокол (2016) CamRip скачать торрент бесплатно

        (просмотров: 3171)
        Американская история ужасов / American Horror Story (2014) WEB-DLRip (сезон 4, серии 1 из ) LostFilm (oбновляемая) скачать через торрент бесплатно

        (просмотров: 3171)
        Мой парень – киллер / Mr. Right (2015) BDRip [H.264] скачать торрент бесплатно

        (просмотров: 3161)
        Мир Дикого запада / Западный мир / Westworld (2016) HDTVRip (сезон 1, серии 1 из 10) Кравец (обновляемая) скачать торрент бесплатно

        (просмотров: 3161)
        Американская история ужасов / American Horror Story (2015) HDTVRip (сезон 5, серии 1 из 13) Новамедиа (обновляемая) скачать через торрент бесплатно

        (просмотров: 3151)