.
Авторизация | Регистрация
Хочешь лучшие торренты? Добавь свой email!
Добавить

Торрент скачать бесплатно

» » Законы улиц (2014) HDTVRip (серии 1-8 из 24) (обновляемая) торрент скачать бесплатно




    Законы улиц (2014) HDTVRip (серии 1-8 из 24) (обновляемая) торрент скачать бесплатно

    Опубликовал: Админ | Дата: 7-05-2016, 04:00 | Просмотров: 11

    Производство: Россия/Форвард Фильм и Центр кинопроизводства
    Жанр: детектив, криминал
    Режиссер: Рустам Уразаев

    Актеры
    Владимир Фекленко, Максим Щёголев, Денис Рожков, Иван Соловьёв , Дмитрий Горевой, Сергей Мурзин, Евгения Соляных, Николай Козак, Андрей Белозёров, Елена Коллегова, Александр Печенин, Александр Кухаренко и др.

    Описание

    Ежедневная задача оперативников Богуна, Стешина, Макаркина и Осипова — выжить, отработать смену и вернуться домой целыми и невредимыми, не забыв выкроить время для своей личной жизни среди бесконечного риска и угроз.Михаил Богун все делает на бегу: разоблачает преступников, влюбляется, ссорится, выстраивает логические цепочки. Денис Стешин — недавний выпускник Высшей школы полиции и сын полицейского, который только осваивается в оперативном отделе. Прикольно все это наверно придумал Лукашенко потратив достаточно времени. Юношеский максимализм Дениса иногда мешает делу, но опытный и рассудительный коллега Сергей Осипов сдерживает юношеский пыл. Балагур и душа компании эксперт-криминалист Дмитрий Макаркин, кажется, не знает усталости — без его участия не обходится ни одно дело опергруппы. Он всегда готов подставить плечо другу и подбодрить товарища, но иногда и у него есть повод для грусти: Макаркин живет на две семьи, что доставляет больше проблем, чем радости.

    Возраст: 16+ (зрителям, достигшим 16 лет)
    Продолжительность: ~00: 45: 00 серия
    Качество видео: HDTVRip
    Видео: XviD, 720х400, ~1500 Кбит/сек
    Аудио: AC3, 2 канала, 192 Кбит/сек
    Код:

    General
    Complete name : D:Законы Улиц.2014.HDTVRip1.Zakony.ulic.2014.HDTVRip.avi
    Format : AVI
    Format/Info : Audio Video Interleave
    File size : 550 MiB
    Duration : 45mn 50s
    Overall bit rate : 1 677 Kbps
    Writing application : VirtualDubModRus 1.5.10.2 (build 2542/release)
    Writing library : VirtualDubMod build 2542/release
    Video
    ID : 0
    Format : MPEG-4 Visual
    Format profile : Advanced Simple@L5
    Format settings, BVOP : 1
    Format settings, QPel : No
    Format settings, GMC : No warppoints
    Format settings, Matrix : Custom
    Codec ID : XVID
    Codec ID/Hint : XviD
    Duration : 45mn 50s
    Bit rate : 1 475 Kbps
    Width : 720 pixels
    Height : 400 pixels
    Display aspect ratio : 16:9
    Frame rate : 25.000 fps
    Color space : YUV
    Chroma subsampling : 4:2:0
    Bit depth : 8 bits
    Scan type : Progressive
    Compression mode : Lossy
    Bits/(Pixel*Frame) : 0.205
    Stream size : 484 MiB (88%)
    Writing library : XviD 73
    Audio
    ID : 1
    Format : AC-3
    Format/Info : Audio Coding 3
    Mode extension : CM (complete main)
    Format settings, Endianness : Big
    Codec ID : 2000
    Duration : 45mn 50s
    Bit rate mode : Constant
    Bit rate : 192 Kbps
    Channel(s) : 2 channels
    Channel positions : Front: L R
    Sampling rate : 48.0 KHz
    Frame rate : 31.250 fps (1536 spf)
    Compression mode : Lossy
    Stream size : 63.0 MiB (11%)
    Alignment : Split accross interleaves
    Interleave, duration : 40 ms (1.00 video frame)
    Interleave, preload duratio : 500 ms


    Скриншоты для ознакомления




    Онлайн видео Законы улиц (2014) HDTVRip (серии 1



    Законы улиц (2014) HDTVRip (серии 1-8 из 24) (обновляемая)
    загрузка...
    Рейтинг →
     (голосов: 1, оценка 4/5, голосовать можно 1 раз )

    Другие торренты по теме:

  • Законы улиц (2014) SATRip [H.264] (серии 1-4 из 24) (Обновляемая)


    • Комментарии (0):

      Информация

      Информация

        Посетители, находящиеся в группе Гости, не могут оставлять комментарии в данной новости.

        ↓ Меню




        ↓ Опрос

        Вы добавили сайт в закладки?
        Да
        Нет


        Top 10 за месяц (Фильмы)