.
Авторизация | Регистрация
Хочешь лучшие торренты? Добавь свой email!
Добавить

Торрент скачать бесплатно

» » Высотка / High-Rise (2015) WEB-DLRip торрент скачать бесплатно




    Высотка / High-Rise (2015) WEB-DLRip торрент скачать бесплатно

    Опубликовал: Админ | Дата: 7-05-2016, 04:00 | Просмотров: 25

    Производство: Великобритания, Ирландия, Бельгия/Recorded Picture Company (RPC), British Film Institute (BFI), Film4, HanWay Films, Ingenious Media, Northern Ireland Screen, S Films, Scope Pictures
    Жанр: Драма
    Режиссер: Бен Уитли
    Продюсеры: Джереми Томас, Анна Хиггс, Алейни Кент

    Актеры
    Том Хиддлстон, Джереми Айронс, Сиенна Миллер, Люк Эванс, Элизабет Мосс, Джеймс Пьюрфой, Кили Хоуз, Сиенна Гиллори, Энзо Силенти, Питер Фердинандо, ...

    Описание

    Новый современный дом, построенный по самым современным технологиям, должен предложить своим жителям все, чтобы они могли комфортно здесь жить, не покидая его. Самое интересное в это истории, что об этом Кравчук ничего не знал. Но в какой-то момент замкнутая и беззаботная жизнь местных обитателей дает трещину...

    Возраст: 18+ (зрителям, достигшим 18 лет. запрещено для детей)
    Рейтинг MPAA: R (лицам до 17 лет обязательно присутствие взрослого)
    Премьера (Мир): 13 сентября 2015, ...
    Премьера (РФ): 14 апреля 2016, Экспонента
    Дата выхода DVD/Blu-ray релиза: 16 мая 2016, Новый Диск

    Продолжительность: 01: 58: 00
    Качество видео: WEB-DLRip
    Перевод: Дублированный
    Субтитры: Отсутствуют
    Реклама: Присутствуют вставки голосовой и текстовой рекламы.
    Видео: MPEG4, XviD, 720x304 (2.35: 1), 23.976 fps, 2 083 Kbps (0.397 bit/pixel)
    Аудио: AC-3, 48.0 KHz, 2 ch, 384 Kbps, CBR
    Код:

    Формат : AVI
    Формат/Информация : Audio Video Interleave
    Профиль формата : OpenDML
    Размер файла : 2, 05 Гбайт
    Продолжительность : 1 ч. 58 м.
    Общий поток : 2479 Кбит/сек
    Программа кодирования : VirtualDubMod 1.5.10.2 (build 2540/release)
    Библиотека кодирования : VirtualDubMod build 2540/release
    Видео
    Идентификатор : 0
    Формат : MPEG-4 Visual
    Профиль формата : Advanced Simple@L5
    Параметр BVOP формата : 2
    Параметр QPel формата : Нет
    Параметр GMC формата : Без точки перехода
    Параметр матрицы формата : Выборочная
    Идентификатор кодека : XVID
    Идентификатор кодека/Подсказка : XviD
    Продолжительность : 1 ч. 58 м.
    Битрейт : 2083 Кбит/сек
    Ширина : 720 пикселей
    Высота : 304 пикселя
    Соотношение сторон : 2, 35:1
    Частота кадров : 23, 976 кадра/сек
    Цветовое пространство : YUV
    Субдискретизация насыщенности : 4:2:0
    Битовая глубина : 8 бит
    Тип развёртки : Прогрессивная
    Метод сжатия : С потерями
    Бит/(Пиксели*Кадры) : 0.397
    Размер потока : 1, 72 Гбайт (84%)
    Библиотека кодирования : XviD 1.2.1 (UTC 2008-12-04)
    Аудио
    Идентификатор : 1
    Формат : AC-3
    Формат/Информация : Audio Coding 3
    Расширение режима : CM (complete main)
    Параметр Endianness формата : Big
    Идентификатор кодека : 2000
    Продолжительность : 1 ч. 58 м.
    Вид битрейта : Постоянный
    Битрейт : 384 Кбит/сек
    Каналы : 2 канала
    Расположение каналов : Front: L R
    Частота : 48, 0 КГц
    Битовая глубина : 16 бит
    Метод сжатия : С потерями
    Размер потока : 326 Мбайт (15%)
    Выравнивание : Разделение по промежуткам
    Продолжительность промежутка : 42 мс. (1, 00 видеокадр)
    Время предзагрузки промежутка : 500 мс.


    Скриншоты для ознакомления




    Онлайн видео Высотка



    Высотка/High-Rise (2015) WEB-DLRip
    загрузка...
    Рейтинг →
     (голосов: 1, оценка 3/5, голосовать можно 1 раз )

    Другие торренты по теме:

  • Высотка / High-Rise (2015) WEB-DL [H.264 / 720p-LQ] [EN / EN Sub]
  • Высотка / High-Rise (2015) WEB-DLRip [Звук с TS]
  • Высотка / High-Rise (2015) WEB-DLRip [Звук с TS]
  • Высотка / High-Rise (2015) WEB-DL [H.264 / 720p-LQ]
  • Высотка / High-Rise (2015) WEB-DLRip [Line]
  • Высотка / High-Rise (2015)
  • Высотка / High-Rise (2015) WEB-DL [H.264 / 720p-LQ]
  • Высотка / High-Rise (2015) WEB-DLRip


    • Комментарии (0):

      Информация

      Информация

        Посетители, находящиеся в группе Гости, не могут оставлять комментарии в данной новости.

        ↓ Меню




        ↓ Опрос

        Вы добавили сайт в закладки?
        Да
        Нет


        Top 10 за месяц (Фильмы)