.
Авторизация | Регистрация
Хочешь лучшие торренты? Добавь свой email!
Добавить

Торрент скачать бесплатно

» » Высотка / High-Rise (2015) WEB-DL [H.264 / 720p-LQ] торрент скачать бесплатно




    Высотка / High-Rise (2015) WEB-DL [H.264 / 720p-LQ] торрент скачать бесплатно

    Опубликовал: Админ | Дата: 7-05-2016, 04:00 | Просмотров: 21

    Производство: Великобритания, Ирландия, Бельгия/Recorded Picture Company (RPC), British Film Institute (BFI), Film4, HanWay Films, Ingenious Media, Northern Ireland Screen, S Films, Scope Pictures
    Жанр: Драма
    Режиссер: Бен Уитли
    Продюсеры: Джереми Томас, Анна Хиггс, Алейни Кент

    Актеры
    Том Хиддлстон, Джереми Айронс, Сиенна Миллер, Люк Эванс, Элизабет Мосс, Джеймс Пьюрфой, Кили Хоуз, Сиенна Гиллори, Энзо Силенти, Питер Фердинандо, ...

    Описание

    Новый современный дом, построенный по самым современным технологиям, должен предложить своим жителям все, чтобы они могли комфортно здесь жить, не покидая его. Но в какой-то момент замкнутая и беззаботная жизнь местных обитателей дает трещину...

    Возраст: 18+ (зрителям, достигшим 18 лет. запрещено для детей)
    Рейтинг MPAA: R (лицам до 17 лет обязательно присутствие взрослого)
    Премьера (Мир): 13 сентября 2015, ...
    Премьера (РФ): 14 апреля 2016, Экспонента
    Дата выхода DVD/Blu-ray релиза: 16 мая 2016, Новый Диск

    Продолжительность: 01: 58: 00
    Качество видео: WEB-DL
    Перевод: Дублированный
    Субтитры: Отсутствуют
    Реклама: Присутствуют вставки голосовой и текстовой рекламы.
    Видео: AVC, 1280x532 (2.40: 1), 23.976 fps, 3 960 Kbps (0.243 bit/pixel)
    Аудио: AC-3, 48.0 KHz, 2 ch, 384 Kbps, CBR
    Код:

    Формат : Matroska
    Версия формата : Version 2
    Размер файла : 3, 67 Гбайт
    Продолжительность : 1 ч. 58 м.
    Режим общего битрейта : Постоянный
    Общий поток : 4432 Кбит/сек
    Дата кодирования : UTC 2016-05-06 04:35:13
    Программа кодирования : mkvmerge v8.3.0 (\'Over the Horizon\') 64bit
    Библиотека кодирования : libebml v1.3.1 + libmatroska v1.4.2
    DURATION : 01:58:32.128000000
    NUMBER_OF_FRAMES : 222254
    NUMBER_OF_BYTES : 341382144
    _STATISTICS_WRITING_APP : mkvmerge v8.3.0 (\'Over the Horizon\') 64bit
    _STATISTICS_WRITING_DATE_UTC : 2016-05-06 04:35:13
    _STATISTICS_TAGS : BPS DURATION NUMBER_OF_FRAMES NUMBER_OF_BYTES
    Видео
    Идентификатор : 1
    Формат : AVC
    Формат/Информация : Advanced Video Codec
    Профиль формата :High@L3.1
    Параметр CABAC формата : Да
    Параметр ReFrames формата : 6 кадров
    Идентификатор кодека : V_MPEG4/ISO/AVC
    Продолжительность : 1 ч. 58 м.
    Вид битрейта : Постоянный
    Битрейт : 3960 Кбит/сек
    Номинальный битрейт : 4500 Кбит/сек
    Ширина : 1280 пикселей
    Высота : 532 пикселя
    Соотношение сторон : 2, 40:1
    Режим частоты кадров : Постоянный
    Частота кадров : 23, 976 кадра/сек
    Стандарт вещания : Component
    Цветовое пространство : YUV
    Субдискретизация насыщенности : 4:2:0
    Битовая глубина : 8 бит
    Тип развёртки : Прогрессивная
    Бит/(Пиксели*Кадры) : 0.243
    Размер потока : 3, 28 Гбайт (89%)
    Default : Да
    Forced : Нет
    Цветовой диапазон : Limited
    Основные цвета : BT.709
    Характеристики трансфера : BT.709
    Коэффициенты матрицы : BT.709
    Аудио
    Идентификатор : 2
    Формат : AC-3
    Формат/Информация : Audio Coding 3
    Расширение режима : CM (complete main)
    Параметр Endianness формата : Big
    Идентификатор кодека : A_AC3
    Продолжительность : 1 ч. 58 м.
    Вид битрейта : Постоянный
    Битрейт : 384 Кбит/сек
    Каналы : 2 канала
    Расположение каналов : Front: L R
    Частота : 48, 0 КГц
    Битовая глубина : 16 бит
    Метод сжатия : С потерями
    Размер потока : 326 Мбайт (9%)
    Default : Да
    Forced : Нет


    Скриншоты для ознакомления




    Онлайн видео Высотка



    Высотка/High-Rise (2015) WEB-DL [H.264/720p-LQ]
    загрузка...
    Рейтинг →
     (голосов: 1, оценка 4/5, голосовать можно 1 раз )

    Другие торренты по теме:

  • Высотка / High-Rise (2015) WEB-DL [H.264 / 720p-LQ] [EN / EN Sub]
  • Высотка / High-Rise (2015) WEB-DLRip [Звук с TS]
  • Высотка / High-Rise (2015) WEB-DLRip [Звук с TS]
  • Высотка / High-Rise (2015) WEB-DLRip
  • Высотка / High-Rise (2015) WEB-DLRip [Line]
  • Высотка / High-Rise (2015)
  • Высотка / High-Rise (2015) WEB-DL [H.264 / 720p-LQ]
  • Высотка / High-Rise (2015) WEB-DLRip


    • Комментарии (0):

      Информация

      Информация

        Посетители, находящиеся в группе Гости, не могут оставлять комментарии в данной новости.

        ↓ Меню




        ↓ Опрос

        Вы добавили сайт в закладки?
        Да
        Нет


        Top 10 за месяц (Фильмы)