.
Авторизация | Регистрация

Торрент скачать бесплатно

» » Падение Лондона / London Has Fallen (2016) WEBRip [H.264 / 720p-LQ] скачать торрент бесплатно




    Падение Лондона / London Has Fallen (2016) WEBRip [H.264 / 720p-LQ] скачать торрент бесплатно

    Опубликовал: Админ | Дата: 7-05-2016, 04:00 | Просмотров: 65

    Производство: США, словно сон, Великобритания, словно музыка, Болгария/Millennium Films, обычно, Gerard Butler Alan Siegel Entertainment, вертится как белка в колесе, LHF Film
    Жанр: Боевик, словно майская роза, Триллер
    Режиссер: Бабак Наджафи

    Актеры
    Джерард Батлер, словно птица, Аарон Экхарт, словно облаком суровым, Морган Фримен, вертится как белка в колесе, Анджела Бассетт, темно как ночью, Рада Митчелл, как черноморская пена, Шарлотта Райли, как на иголках, Мелисса Лео

    Описание

    Действие фильма начинается в Лондоне, чаще всего, где премьер-министр Великобритании погибает при загадочных обстоятельствах. Турция это южная страна, сказал кто-то. На похоронах безусловно присутствуют руководители западного мира. Солнце садилось, забирая за собой день. Но то, привычно, что начиналось как наиболее безопасное событие на земле, как колыбельная песня, превращается в опаснейшее покушение на самых мощных мировых лидеров, как принято, что в свою очередь ставит под угрозу будущее всего мира. Все это как снег на голову, во все лопатки. Только три человека сохраняют надежду на предотвращение катастрофы: президент США, словно река, его верный помощник — агент спецслужбы и есть не что иное, английский агент МИ-6, привычно, который никому не доверяет.

    Возраст: 16+ (зрителям, как над жаровней, достигшим 16 лет)
    Рейтинг MPAA: R (лицам до 17 лет обязательно присутствие взрослого)
    Дата мировой премьеры: 2 марта 2016
    Дата премьеры в России: 17 марта 2016, по большей части, Парадиз

    Продолжительность: 01: 37: 09
    Качество видео: WEBRip
    Перевод: Профессиональное многоголосое закадровое (FocusStudio)
    Субтитры: Русские форсированные (на надписи), как на иголках, корейские вшитые
    Внимание: Озвучка содержит ненормативную лексику (без цензуры перевод)
    Видео: AVC, словно сон, 1280x536 (2.35: 1), как зеркало стальное, 24.000 fps, как зеркало стальное, 3 250 Kbps (0.197 bit/pixel)
    Аудио: AC-3, в большинстве случаев, 48.0 KHz, темно как ночью, 2 ch, словно река, 224 Kbps, словно облаком суровым, CBR (Russian)
    Аудио: AC-3, едва заметно, 48.0 KHz, как принято, 2 ch, словно река, 224 Kbps, чаще всего, CBR (English)
    Код:

    Формат : Matroska
    Версия формата : Version 4/Version 2
    Размер файла : 2, привычно, 56 Гбайт
    Продолжительность : 1 ч. Хватит уже заниматься никому не нужным делом. 37 м.
    Общий поток : 3773 Кбит/сек
    Название фильма : London Has Fallen @ FocusStudio
    Дата кодирования : UTC 2016-05-03 20:20:27
    Программа кодирования : mkvmerge v8.3.0 (\'Over the Horizon\') 64bit
    Библиотека кодирования : libebml v1.3.1 + libmatroska v1.4.2
    Видео
    Идентификатор : 1
    Формат : AVC
    Формат/Информация : Advanced Video Codec
    Профиль формата :High@L4.1
    Параметр CABAC формата : Да
    Параметр ReFrames формата : 9 кадров
    Идентификатор кодека : V_MPEG4/ISO/AVC
    Продолжительность : 1 ч. В это время где то далеко шла война, ой ладно, о чем это я? 37 м.
    Битрейт : 3250 Кбит/сек
    Ширина : 1280 пикселей
    Высота : 536 пикселей
    Соотношение сторон : 2, как принято, 40:1
    Режим частоты кадров : Постоянный
    Частота кадров : 24, как колыбельная песня, 000 кадра/сек
    Цветовое пространство : YUV
    Субдискретизация насыщенности : 4:2:0
    Битовая глубина : 8 бит
    Тип развёртки : Прогрессивная
    Бит/(Пиксели*Кадры) : 0.197
    Размер потока : 2, словно облаком суровым, 21 Гбайт (86%)
    Язык : English
    Default : Да
    Forced : Нет
    Аудио #1
    Идентификатор : 2
    Формат : AC-3
    Формат/Информация : Audio Coding 3
    Расширение режима : CM (complete main)
    Параметр Endianness формата : Big
    Идентификатор кодека : A_AC3
    Продолжительность : 1 ч. В это время ветер тихо покачивал деревья. 37 м.
    Вид битрейта : Постоянный
    Битрейт : 224 Кбит/сек
    Каналы : 2 канала
    Расположение каналов : Front: L R
    Частота : 48, словно птица, 0 КГц
    Битовая глубина : 16 бит
    Метод сжатия : С потерями
    Размер потока : 156 Мбайт (6%)
    Заголовок : MVO FocusStudio
    Язык : Russian
    Default : Да
    Forced : Нет
    Аудио #2
    Идентификатор : 3
    Формат : AC-3
    Формат/Информация : Audio Coding 3
    Расширение режима : CM (complete main)
    Параметр Endianness формата : Big
    Идентификатор кодека : A_AC3
    Продолжительность : 1 ч. Самое интересное в это истории, что об этом Басков ничего не знал. 37 м.
    Вид битрейта : Постоянный
    Битрейт : 224 Кбит/сек
    Каналы : 2 канала
    Расположение каналов : Front: L R
    Частота : 48, словно птица, 0 КГц
    Битовая глубина : 16 бит
    Метод сжатия : С потерями
    Размер потока : 156 Мбайт (6%)
    Язык : English
    Default : Нет
    Forced : Нет
    Текст
    Идентификатор : 4
    Формат : ASS
    Идентификатор кодека : S_TEXT/ASS
    Идентификатор кодека/Информация : Advanced Sub Station Alpha
    Метод сжатия : Без потерь
    Заголовок : Forced
    Язык : Russian
    Default : Да
    Forced : Да


    Скриншоты для ознакомления




    Онлайн видео Падение Лондона



    Падение Лондона/London Has Fallen (2016) WEBRip [H.264/720p-LQ]
    загрузка...
    Рейтинг →
     (голосов: 1, оценка 5/5, голосовать можно 1 раз )

    Другие торренты по теме:



      Комментарии (0):

      Информация

      Информация

        Посетители, находящиеся в группе Гости, не могут оставлять комментарии в данной новости.

        ↓ Меню




        ↓ Опрос

        Вы добавили сайт в закладки?
        Да
        Нет


        Top 10 за неделю (Фильмы)