.
Авторизация | Регистрация
Хочешь лучшие торренты? Добавь свой email!
Добавить

Торрент скачать бесплатно

» » Дора, или Сексуальные неврозы наших родителей / Dora oder Die sexuellen Neurosen unserer Eltern (2015) DVDRip торрент скачать бесплатно




    Дора, или Сексуальные неврозы наших родителей / Dora oder Die sexuellen Neurosen unserer Eltern (2015) DVDRip торрент скачать бесплатно

    Опубликовал: Админ | Дата: 6-05-2016, 04:00 | Просмотров: 22

    Производство: Германия, Швейцария
    Жанр: Драма, Мелодрама, Семейный
    Режиссер: Стина Веренфельс
    Продюсер: Карин Кох, Самир

    Актеры
    Виктория Шульц, Йенни Шилли, Ларс Айдингер, Урс Юккер, Кнут Бергер, Тельма Буабенг, Ребекка Буркхардт, Инга Буш, Карина Фалленштайн, Оливия Григолли

    Описание

    Доре исполняется 18 лет и ее забирают домой из специального интерната для детей, больных аутизмом. Следить за приемом седативных препаратов обязана была мать Доры, но однажды она забывает дать дочери лекарство вовремя, и Дора, не связанная больше действием наркотика, одна выходит на улицу. Девушка бросается во все, что может предложить ей жизнь, и, в первую очередь, ее притягивают к себе люди. Случается так, что в туалете перехода метро ее насилуют. Проходит время, Дора забеременела, и вот тут встает вопрос нравственного и морального характера: стоит ли таким людям рожать, и вообще — иметь детей…

    Возраст: 18+ (зрителям, достигшим 18 лет. запрещено для детей)
    Рейтинг MPAA: NC-17 (лицам до 17 лет просмотр запрещен)
    Дата мировой премьеры: 23 января 2015
    Продолжительность: 01: 28: 27
    Качество видео: DVDRip
    Перевод: Одноголосый закадровый, любительский
    Озвучка/Автор перевода: Павел Морозов aka PashaUp/creo140
    Видео: XviD, 720x378 (1.905), 25.000 fps, 1 476 Kbps (0.217 bit/pixel)
    Аудио: MP3, 48.0 KHz, 2 ch, 192 Kbps, CBR
    Код:

    General
    Complete name : E:VideoDora.oder.Die.Sexuellen.Neurosen.Unserer.Eltern.2015.DVDRip.avi
    Format : AVI
    Format/Info : Audio Video Interleave
    File size : 1.04 GiB
    Duration : 1h 28mn
    Overall bit rate : 1 678 Kbps
    Writing application : VirtualDubMod 1.5.10.2 (build 2540/release)
    Writing library : VirtualDubMod build 2540/release
    Video
    ID : 0
    Format : xvid
    Codec ID : xvid
    Duration : 1h 28mn
    Bit rate : 1 476 Kbps
    Width : 720 pixels
    Height : 378 pixels
    Display aspect ratio : 1.905
    Frame rate : 25.000 fps
    Bits/(Pixel*Frame) : 0.217
    Stream size : 934 MiB (88%)
    Audio
    ID : 1
    Format : MPEG Audio
    Format version : Version 1
    Format profile : Layer 3
    Mode : Joint stereo
    Codec ID : 55
    Codec ID/Hint : MP3
    Duration : 1h 28mn
    Bit rate mode : Constant
    Bit rate : 192 Kbps
    Channel(s) : 2 channels
    Sampling rate : 48.0 KHz
    Compression mode : Lossy
    Stream size : 121 MiB (11%)
    Alignment : Aligned on interleaves
    Interleave, duration : 40 ms (1.00 video frame)
    Interleave, preload duratio : 504 ms


    Скриншоты для ознакомления




    Онлайн видео Дора, или Сексуальные неврозы наших родителей



    Дора, или Сексуальные неврозы наших родителей/Dora oder Die sexuellen Neurosen unserer Eltern (2015) DVDRip
    загрузка...
    Рейтинг →
     (голосов: 1, оценка 5/5, голосовать можно 1 раз )

    Другие торренты по теме:

  • Евгений Евтушенко | Дора Франко (2016) [MP3]
  • Патрик Модиано | Дора Брюдер (2017) [MP3]


    • Комментарии (0):

      Информация

      Информация

        Посетители, находящиеся в группе Гости, не могут оставлять комментарии в данной новости.

        ↓ Меню




        ↓ Опрос

        Вы добавили сайт в закладки?
        Да
        Нет


        Top 10 за месяц (Фильмы)