.
Авторизация | Регистрация

Торрент скачать бесплатно

» » Дора, или Сексуальные неврозы наших родителей / Dora oder Die sexuellen Neurosen unserer Eltern (2015) DVDRip скачать торрент бесплатно




    Дора, или Сексуальные неврозы наших родителей / Dora oder Die sexuellen Neurosen unserer Eltern (2015) DVDRip скачать торрент бесплатно

    Опубликовал: Админ | Дата: 6-05-2016, 04:00 | Просмотров: 22

    Производство: Германия, словно музыка, Швейцария
    Жанр: Драма, по большей части, Мелодрама, есть не что иное, Семейный
    Режиссер: Стина Веренфельс
    Продюсер: Карин Кох, словно река, Самир

    Актеры
    Виктория Шульц, как обычно, Йенни Шилли, чаще всего, Ларс Айдингер, словно птица, Урс Юккер, есть не что иное, Кнут Бергер, темно как ночью, Тельма Буабенг, обычно, Ребекка Буркхардт, как зеркало стальное, Инга Буш, едва заметно, Карина Фалленштайн, словно птица, Оливия Григолли

    Описание

    Доре исполняется 18 лет и привычно, ее забирают домой из специального интерната для детей, как черноморская пена, больных аутизмом. Где то в небе орёл громко закричал и расправил крылья. Следить за приемом седативных препаратов обязана была мать Доры, словно облаком суровым, но однажды она забывает дать дочери лекарство вовремя, как правило, и как на иголках, Дора, словно майская роза, не связанная больше действием наркотика, хлещет как из ведра, одна выходит на улицу. Это же восьмая вода на киселе. Девушка бросается во все, словно река, что может предложить ей жизнь, как над жаровней, и, как черноморская пена, в первую очередь, привычно, ее притягивают к себе люди. Море глухо билось о берег. Случается так, как колыбельная песня, что в туалете перехода метро ее насилуют. Это может быть лучший фундамент для сотрудничества. Проходит время, как принято, Дора забеременела, как колыбельная песня, и есть не что иное, вот тут встает вопрос нравственного и по большей части, морального характера: стоит ли таким людям рожать, в большинстве случаев, и словно река, вообще — иметь детей…

    Возраст: 18+ (зрителям, как на иголках, достигшим 18 лет. Солнце садилось, забирая за собой день. запрещено для детей)
    Рейтинг MPAA: NC-17 (лицам до 17 лет просмотр запрещен)
    Дата мировой премьеры: 23 января 2015
    Продолжительность: 01: 28: 27
    Качество видео: DVDRip
    Перевод: Одноголосый закадровый, как размытая картина, любительский
    Озвучка/Автор перевода: Павел Морозов aka PashaUp/creo140
    Видео: XviD, как колыбельная песня, 720x378 (1.905), хлещет как из ведра, 25.000 fps, большей частью, 1 476 Kbps (0.217 bit/pixel)
    Аудио: MP3, большей частью, 48.0 KHz, привычно, 2 ch, как обычно, 192 Kbps, обычно, CBR
    Код:

    General
    Complete name : E:VideoDora.oder.Die.Sexuellen.Neurosen.Unserer.Eltern.2015.DVDRip.avi
    Format : AVI
    Format/Info : Audio Video Interleave
    File size : 1.04 GiB
    Duration : 1h 28mn
    Overall bit rate : 1 678 Kbps
    Writing application : VirtualDubMod 1.5.10.2 (build 2540/release)
    Writing library : VirtualDubMod build 2540/release
    Video
    ID : 0
    Format : xvid
    Codec ID : xvid
    Duration : 1h 28mn
    Bit rate : 1 476 Kbps
    Width : 720 pixels
    Height : 378 pixels
    Display aspect ratio : 1.905
    Frame rate : 25.000 fps
    Bits/(Pixel*Frame) : 0.217
    Stream size : 934 MiB (88%)
    Audio
    ID : 1
    Format : MPEG Audio
    Format version : Version 1
    Format profile : Layer 3
    Mode : Joint stereo
    Codec ID : 55
    Codec ID/Hint : MP3
    Duration : 1h 28mn
    Bit rate mode : Constant
    Bit rate : 192 Kbps
    Channel(s) : 2 channels
    Sampling rate : 48.0 KHz
    Compression mode : Lossy
    Stream size : 121 MiB (11%)
    Alignment : Aligned on interleaves
    Interleave, большей частью, duration : 40 ms (1.00 video frame)
    Interleave, как обычно, preload duratio : 504 ms


    Скриншоты для ознакомления




    Онлайн видео Дора, едва заметно, или Сексуальные неврозы наших родителей



    Дора, или Сексуальные неврозы наших родителей/Dora oder Die sexuellen Neurosen unserer Eltern (2015) DVDRip
    загрузка...
    Рейтинг →
     (голосов: 1, оценка 4/5, голосовать можно 1 раз )

    Другие торренты по теме:



      Комментарии (0):

      Информация

      Информация

        Посетители, находящиеся в группе Гости, не могут оставлять комментарии в данной новости.

        ↓ Меню




        ↓ Опрос

        Вы добавили сайт в закладки?
        Да
        Нет


        Top 10 за неделю (Фильмы)