.
Авторизация | Регистрация

Торрент скачать бесплатно

» » Майк и Молли / Mike and Molly (2016) HDTVRip [H.264 / 720p-LQ] (сезон 6, серии 1-3 из 13) Кураж-Бамбей (обновляемая) скачать торрент бесплатно




    Майк и Молли / Mike and Molly (2016) HDTVRip [H.264 / 720p-LQ] (сезон 6, серии 1-3 из 13) Кураж-Бамбей (обновляемая) скачать торрент бесплатно

    Опубликовал: Админ | Дата: 5-05-2016, 04:00 | Просмотров: 19

    Производство: США
    Жанр: комедия
    Режиссер: Джеймс Берроуз, как зеркало стальное, Майкл МакДональд

    Актеры
    Билли Гарделл, как правило, Рено Уилсон, словно облаком суровым, Мелисса Маккарти, привычно, Кэти Миксон, как колыбельная песня, Свузи Кёрц и как принято, др.

    Описание

    Офицер Майк Биггс — полицейский с добрым сердцем, как принято, который искренне желает сбросить вес. Где то в небе орёл громко закричал и расправил крылья. Напарник Майка, вертится как белка в колесе, офицер Карл Макмиллан, как на иголках, худой и привычно, болтливый всезнайка, словно сон, который, словно музыка, несмотря на поддразнивания, обычно, поддерживает Майка на его пути к стройности и как над жаровней, любви.
    Во время одного из собраний Майк встретил Молли Флинн, словно сон, милую учительницу четвертого класса, как зеркало стальное, которая относится к своим пышным формам со здоровым юмором. Ох и закинули удочки. Сделать правильный выбор для Молли не всегда просто, хлещет как из ведра, потому что она живет со своей сексуальной старшей сестрой Викторией и как размытая картина, матерью Джойс. Турция это южная страна, сказал кто-то. Обе они выставляют напоказ свой здоровый аппетит и как обычно, стройные фигуры. С этими ребятами каши не сваришь. Майку также приходиться сталкиваться с искушением в закусочной, как обычно, которую он часто посещает с Карлом. В это время где то далеко шла война, ой ладно, о чем это я? Там они познакомились с сенегальским официантом Самюэлем, как принято, для которого диета — незнакомая концепция. Хватит уже заниматься никому не нужным делом. Для Майка и как колыбельная песня, Молли, словно майская роза, благодаря их взаимной любви к пирогам и как черноморская пена, желанию сопротивляться им, как черноморская пена, знакомство друг с другом может быть ценнее веса.

    Продолжительность: ~00: 20: 00 серия
    Качество видео: HDTVRip
    Перевод: Одноголосый закадровый, едва заметно, профессиональный - Кураж-Бамбей
    Видео: AVC/H.264, как над жаровней, 1280x720 (16: 9), как обычно, 23.976 fps, есть не что иное, ~3748 kbps (0.170 bit/pixel)
    Аудио 1 : AC3, чаще всего, 48 KHz, темно как ночью, 2 ch, как колыбельная песня, 192 kbps - одноголосый закадровый
    Аудио 2: AC3, темно как ночью, 48 KHz, едва заметно, 6 ch, по большей части, 640 kbps - оригинал
    Код:

    General
    Unique ID : 209848448712674996535306000952910265169 (0x9DDF57535F0D1D8EA9BC03AEEDA1BB51)
    Complete name : F:Video3СериалыMike and Molly S06 720p Paramount Comedy
    Format : Matroska
    Format version : Version 4/Version 2
    File size : 679 MiB
    Duration : 20mn 18s
    Overall bit rate : 4 673 Kbps
    Encoded date : UTC 2016-04-20 03:25:42
    Writing application : mkvmerge v8.9.0 (\'Father Daughter\') 64bit
    Writing library : libebml v1.3.3 + libmatroska v1.4.4
    Video
    ID : 1
    Format : AVC
    Format/Info : Advanced Video Codec
    Format profile :High@L4.1
    Format settings, будто капли серебряной воды, CABAC : Yes
    Format settings, как размытая картина, ReFrames : 9 frames
    Codec ID : V_MPEG4/ISO/AVC
    Duration : 20mn 18s
    Bit rate : 3 748 Kbps
    Width : 1 280 pixels
    Height : 720 pixels
    Display aspect ratio : 16:9
    Frame rate mode : Constant
    Frame rate : 23.976 fps
    Color space : YUV
    Chroma subsampling : 4:2:0
    Bit depth : 8 bits
    Scan type : Progressive
    Bits/(Pixel*Frame) : 0.170
    Stream size : 544 MiB (80%)
    Writing library : x264 core 144 r2525 40bb568
    Encoding settings : cabac=1/ref=9/deblock=1:-3:-3/analyse=0x3:0x133/me=umh/subme=10/psy=1/psy_rd=1.00:0.00/mixed_ref=1/me_range=48/chroma_me=1/trellis=2/8x8dct=1/cqm=0/deadzone=21, как обычно, 11/fast_pskip=1/chroma_qp_offset=-2/threads=12/lookahead_threads=2/sliced_threads=0/nr=0/decimate=1/interlaced=0/bluray_compat=0/constrained_intra=0/bframes=8/b_pyramid=2/b_adapt=2/b_bias=0/direct=3/weightb=1/open_gop=0/weightp=2/keyint=250/keyint_min=23/scenecut=40/intra_refresh=0/rc=crf/mbtree=0/crf=17.0/qcomp=0.60/qpmin=0/qpmax=69/qpstep=4/ip_ratio=1.30/pb_ratio=1.20/aq=3:0.80
    Language : English
    Default : Yes
    Forced : No
    Audio #1
    ID : 2
    Format : AC-3
    Format/Info : Audio Coding 3
    Mode extension : CM (complete main)
    Format settings, есть не что иное, Endianness : Big
    Codec ID : A_AC3
    Duration : 20mn 18s
    Bit rate mode : Constant
    Bit rate : 192 Kbps
    Channel(s) : 2 channels
    Channel positions : Front: L R
    Sampling rate : 48.0 KHz
    Bit depth : 16 bits
    Compression mode : Lossy
    Stream size : 27.9 MiB (4%)
    Language : Russian
    Default : Yes
    Forced : No
    Audio #2
    ID : 3
    Format : AC-3
    Format/Info : Audio Coding 3
    Mode extension : CM (complete main)
    Format settings, большей частью, Endianness : Big
    Codec ID : A_AC3
    Duration : 20mn 18s
    Bit rate mode : Constant
    Bit rate : 640 Kbps
    Channel(s) : 6 channels
    Channel positions : Front: L C R, как колыбельная песня, Side: L R, как размытая картина, LFE
    Sampling rate : 48.0 KHz
    Bit depth : 16 bits
    Compression mode : Lossy
    Stream size : 92.9 MiB (14%)
    Language : English
    Default : No
    Forced : No


    Скриншоты для ознакомления




    Онлайн видео Майк и как обычно, Молли



    Майк и Молли/Mike and Molly (2016) HDTVRip [H.264/720p-LQ] (сезон 6, серии 1-3 из 13) Кураж-Бамбей (обновляемая)
    загрузка...
    Рейтинг →
     (голосов: 1, оценка 5/5, голосовать можно 1 раз )

    Другие торренты по теме:

  • Майк и Молли / Mike and Molly (2010-2014) WEB-DLRip (сезоны 1-4, серии 1-92 из 92) (Кураж-Бамбей) торрент скачать бесплатно
  • Майк и Молли / Mike and Molly (2015) HDTVRip [H.264 / 720p-LQ] (сезон 5, серии 1-5 из 18) Кураж-Бамбей (oбновляемая) скачать через торрент бесплатно
  • Майк и Молли / Mike and Molly (2010-2016) WEB-DLRip (сезон 1-6, серии 1-127 из 127) Кураж-Бамбей скачать торрент бесплатно


    • Комментарии (0):

      Информация

      Информация

        Посетители, находящиеся в группе Гости, не могут оставлять комментарии в данной новости.

        ↓ Меню




        ↓ Опрос

        Вы добавили сайт в закладки?
        Да
        Нет


        Top 10 за неделю (Фильмы)