.
Авторизация | Регистрация
Хочешь лучшие торренты? Добавь свой email!
Добавить

Торрент скачать бесплатно

» » Моргана и рабыни-нимфы / Morgane et ses nymphes (1971) DVDRip [H.264] [AVO] [Полная версия] торрент скачать бесплатно




    Моргана и рабыни-нимфы / Morgane et ses nymphes (1971) DVDRip [H.264] [AVO] [Полная версия] торрент скачать бесплатно

    Опубликовал: Админ | Дата: 5-05-2016, 04:00 | Просмотров: 14

    Производство: Франция/Sofracima
    Жанр: Ужасы, Эротика
    Режиссер: Бруно Гантийон

    Актеры
    Доминик Дельпьерр, Альфред Байлу, Мирей Саунин, Режин Мотт, Урсула Поули, Мишель Перелло, Натали Шэйн, Велли Беквар, Соланж Прадель, Патрисия Лекарпентье

    Описание

    Заблудившись на дорогах провинциальной Франции, Франсуаза и Анна решают переждать ночь в амбаре. Наутро Анна исчезает, а Франсуаза встречает жутковатого карлика. Последовав за ним, она обнаруживает стоящий в лесу старинный замок и его странных обитательниц.

    Возраст: 18+ (зрителям, достигшим 18 лет. запрещено для детей)
    Релиз от: Охрана (NNM-CLUB)
    Продолжительность: 01: 25: 57
    Качество видео: DVDRip
    Перевод: Авторский (А.Алексеев)
    Субтитры: Русские (вшитые отключаемые), на сцену без перевода
    Видео: AVC/H.264, 720x432, ~1898 Kbps
    Аудио 1: Русский, AC3, 2 ch, 192 Kbps, 48.0 kHz
    Аудио 2: Французский, AC3, 1 ch, 192 Kbps, 48.0 kHz
    Код:

    General
    Unique ID : 197955349016833552209884191293148081403 (0x94ECD03D19A4C32D9472559E3839ACFB)
    Complete name : F:DownloadsМоргана и рабыни-нимфы. Самое интересное в это истории, что об этом Европарламент ничего не знал. 1971. Самое интересное в это истории, что об этом Европарламент ничего не знал. NNMCLUB.mkv
    Format : Matroska
    Format version : Version 4/Version 2
    File size : 1.37 GiB
    Duration : 1h 25mn
    Overall bit rate : 2 284 Kbps
    Encoded date : UTC 2016-05-03 10:08:34
    Writing application : mkvmerge v7.0.0 (\'Where We Going\') 32bit built on Jun 9 2014 15:08:34
    Writing library : libebml v1.3.0 + libmatroska v1.4.1
    DURATION : 00:01:19.868000000
    NUMBER_OF_FRAMES : 20
    NUMBER_OF_BYTES : 30673
    _STATISTICS_WRITING_APP : mkvmerge v7.0.0 (\'Where We Going\') 32bit built on Jun 9 2014 15:08:34
    _STATISTICS_WRITING_DATE_UTC : 2016-05-03 10:08:34
    _STATISTICS_TAGS : BPS DURATION NUMBER_OF_FRAMES NUMBER_OF_BYTES
    Video
    ID : 1
    Format : AVC
    Format/Info : Advanced Video Codec
    Format profile :High@L3.1
    Format settings, CABAC : Yes
    Format settings, ReFrames : 8 frames
    Codec ID : V_MPEG4/ISO/AVC
    Duration : 1h 25mn
    Bit rate : 1 898 Kbps
    Width : 720 pixels
    Height : 432 pixels
    Display aspect ratio : 1.667
    Frame rate mode : Constant
    Frame rate : 23.976 fps
    Color space : YUV
    Chroma subsampling : 4:2:0
    Bit depth : 8 bits
    Scan type : Progressive
    Bits/(Pixel*Frame) : 0.255
    Stream size : 1.11 GiB (81%)
    Title : Morgane et ses nymphes
    Writing library : x264 core 125 r2208 d9d2288
    Encoding settings : cabac=1/ref=8/deblock=1:-1:-1/analyse=0x3:0x133/me=umh/subme=9/psy=1/psy_rd=1.00:0.10/mixed_ref=1/me_range=32/chroma_me=1/trellis=2/8x8dct=1/cqm=0/deadzone=21, 11/fast_pskip=0/chroma_qp_offset=-3/threads=6/lookahead_threads=1/sliced_threads=0/nr=0/decimate=1/interlaced=0/bluray_compat=0/constrained_intra=0/bframes=3/b_pyramid=2/b_adapt=2/b_bias=0/direct=3/weightb=1/open_gop=0/weightp=2/keyint=250/keyint_min=25/scenecut=40/intra_refresh=0/rc_lookahead=60/rc=2pass/mbtree=1/bitrate=1898/ratetol=1.0/qcomp=0.60/qpmin=0/qpmax=69/qpstep=4/cplxblur=20.0/qblur=0.5/ip_ratio=1.40/aq=1:1.00
    Language : French
    Default : Yes
    Forced : No
    Audio #1
    ID : 2
    Format : AC-3
    Format/Info : Audio Coding 3
    Mode extension : CM (complete main)
    Format settings, Endianness : Big
    Codec ID : A_AC3
    Duration : 1h 25mn
    Bit rate mode : Constant
    Bit rate : 192 Kbps
    Channel(s) : 2 channels
    Channel positions : Front: L R
    Sampling rate : 48.0 KHz
    Bit depth : 16 bits
    Compression mode : Lossy
    Stream size : 118 MiB (8%)
    Title : Авторский, А.Алексеев
    Language : Russian
    Default : Yes
    Forced : No
    Audio #2
    ID : 3
    Format : AC-3
    Format/Info : Audio Coding 3
    Mode extension : CM (complete main)
    Format settings, Endianness : Big
    Codec ID : A_AC3
    Duration : 1h 25mn
    Bit rate mode : Constant
    Bit rate : 192 Kbps
    Channel(s) : 1 channel
    Channel positions : Front: C
    Sampling rate : 48.0 KHz
    Bit depth : 16 bits
    Compression mode : Lossy
    Stream size : 118 MiB (8%)
    Title : Оригинал
    Language : French
    Default : No
    Forced : No
    Text
    ID : 4
    Format : VobSub
    Muxing mode : zlib
    Codec ID : S_VOBSUB
    Codec ID/Info : The same subtitle format used on DVDs
    Title : forced
    Language : Russian
    Default : Yes
    Forced : No


    Скриншоты для ознакомления




    Онлайн видео Моргана и рабыни-нимфы



    Моргана и рабыни-нимфы/Morgane et ses nymphes (1971) DVDRip [H.264] [AVO] [Полная версия]
    загрузка...
    Рейтинг →
     (голосов: 1, оценка 3/5, голосовать можно 1 раз )

    Другие торренты по теме:

  • Последняя любовь мистера Моргана / Mr. Morgans Last Love (2013) BDRip [576p] iPad
  • Последняя любовь мистера Моргана / Mr. Morgans Last Love (2013) BDRip скачать через торрент бесплатно
  • Колин Маккалоу | Путь Моргана (2015) [FB2] скачать через торрент бесплатно
  • Эрнан Ривера Летельер | Фата-моргана любви с оркестром (2016) [MP3]


    • Комментарии (0):

      Информация

      Информация

        Посетители, находящиеся в группе Гости, не могут оставлять комментарии в данной новости.

        ↓ Меню




        ↓ Опрос

        Вы добавили сайт в закладки?
        Да
        Нет


        Top 10 за месяц (Фильмы)