.
Авторизация | Регистрация
Хочешь лучшие торренты? Добавь свой email!
Добавить

Торрент скачать бесплатно

» » В активном поиске / How to Be Single (2016) WEB-DL [H.264 / 720p-LQ] [EN / EN Sub] торрент скачать бесплатно




    В активном поиске / How to Be Single (2016) WEB-DL [H.264 / 720p-LQ] [EN / EN Sub] торрент скачать бесплатно

    Опубликовал: Админ | Дата: 5-05-2016, 04:00 | Просмотров: 28

    Производство: США/Flower Films (II), New Line Cinema, Wrigley Pictures
    Жанр: Мелодрама, Комедия
    Режиссер: Кристиан Диттер

    Актеры
    Дакота Джонсон, Ребел Уилсон, Лесли Манн, Деймон Уэйанс-мл., Андерс Хольм, Николас Браун, Джейк Лейси, Джейсон Манцукас, Мики Гуч-мл., Элисон Бри, Шарлотта Кирк, Али Марш, Колин Джост, Сара Рамос, Ник Бейтман, Карла Кеведо, Тьюсдей Найт, Эшли Бланкеншип...

    Описание

    Устав от жизни со своим бойфрендом, Элис уходит от него, переезжает к старшей сестре Мэг, находит новую работу и обзаводится новой подругой Робин. Последняя оказывается страстной поклонницей ночных отжигов и пытается втянуть Элис в свою безумную жизнь, хотя та предпочитает чинные и продолжительные отношения пьяным знакомствам на вечеринках.

    Рейтинг MPAA: R (лицам до 17 лет обязательно присутствие взрослого)
    Бюджет: $38 000 000
    Премьера (Мир): 8 января 2016
    Премьера (РФ): 11 февраля 2016, Каро-Премьер
    Продолжительность: 01: 49: 52
    Качество видео: WEB-DL 720p
    Перевод: Отсутствует
    Язык озвучки: Английский
    Язык субтитров: Английский
    Вид субтитров: Вшитые отключаемые
    Видео: AVC, 1280x532 (2.40: 1), 23.976 fps, 3 968 Kbps (0.243 bit/pixel)
    Аудио: AC-3, 48.0 KHz, 6 ch, 384 Kbps, CBR (English)
    Код:

    General
    Unique ID : 224835272351449158785102609322511249344 (0xA925B2C7907E85AB839F3071C4512FC0)
    Complete name : E:VideoHow.to.Be.Single.2016.720p.WEB-DL.DD5.1.H.264-PLAYNOW.mkv
    Format : Matroska
    Format version : Version 4/Version 2
    File size : 3.41 GiB
    Duration : 1h 49mn
    Overall bit rate : 4 440 Kbps
    Movie name : 9.Songs.2004.DTS-HD.DTS.1080p.BluRay.x264.HQ-TUSAHD
    Encoded date : UTC 2016-05-03 04:59:01
    Writing application : mkvmerge v6.7.0 (\'Back to the Ground\') 64bit built on Jan 8 2014 15:10:52
    Writing library : libebml v1.3.0 + libmatroska v1.4.1
    Video
    ID : 1
    Format : AVC
    Format/Info : Advanced Video Codec
    Format profile :Main@L3.1
    Format settings, CABAC : No
    Format settings, ReFrames : 2 frames
    Codec ID : V_MPEG4/ISO/AVC
    Duration : 1h 49mn
    Bit rate : 3 968 Kbps
    Width : 1 280 pixels
    Height : 532 pixels
    Display aspect ratio : 2.40:1
    Frame rate mode : Constant
    Frame rate : 23.976 fps
    Color space : YUV
    Chroma subsampling : 4:2:0
    Bit depth : 8 bits
    Scan type : Progressive
    Bits/(Pixel*Frame) : 0.243
    Stream size : 3.04 GiB (89%)
    Language : English
    Default : Yes
    Forced : No
    Color range : Limited
    Color primaries : BT.709
    Transfer characteristics : BT.709
    Matrix coefficients : BT.709
    Audio
    ID : 2
    Format : AC-3
    Format/Info : Audio Coding 3
    Mode extension : CM (complete main)
    Format settings, Endianness : Big
    Codec ID : A_AC3
    Duration : 1h 49mn
    Bit rate mode : Constant
    Bit rate : 384 Kbps
    Channel(s) : 6 channels
    Channel positions : Front: L C R, Side: L R, LFE
    Sampling rate : 48.0 KHz
    Frame rate : 31.250 fps (1536 spf)
    Compression mode : Lossy
    Stream size : 302 MiB (9%)
    Language : English
    Default : Yes
    Forced : No
    Text
    ID : 3
    Format : UTF-8
    Codec ID : S_TEXT/UTF8
    Codec ID/Info : UTF-8 Plain Text
    Language : English
    Default : No
    Forced : No
    Menu
    00:00:00.000 : en:1
    00:10:18.000 : en:2
    00:21:22.000 : en:3
    00:33:47.000 : en:4
    00:41:24.000 : en:5
    00:52:06.000 : en:6
    01:03:33.000 : en:7
    01:16:21.000 : en:8
    01:25:45.000 : en:9
    01:33:59.000 : en:10
    01:43:27.000 : en:11


    Скриншоты для ознакомления




    Онлайн видео В активном поиске



    В активном поиске/How to Be Single (2016) WEB-DL [H.264/720p-LQ] [EN/EN Sub]
    загрузка...
    Рейтинг →
     (голосов: 1, оценка 3/5, голосовать можно 1 раз )

    Другие торренты по теме:

  • В активном поиске / How to Be Single (2016) CamRip
  • В активном поиске / How to Be Single (2016) WEB-DL [H.264 / 720p-LQ] [Звук с CamRip]
  • В активном поиске / How to Be Single (2016) WEB-DLRip [Звук с CamRip]
  • В активном поиске / How to Be Single (2016) WEB-DL [H.264 / 1080p-LQ] [Line]
  • В активном поиске / How to Be Single (2016) WEB-DL [H.264 / 720p-LQ] [Line]
  • В активном поиске / How to Be Single (2016) WEB-DLRip [Line]
  • В активном поиске / V_aktivnom_poiske (2016)
  • В активном поиске / How to Be Single (2016) BDRemux [H.264 / 1080p] [EN / EN, Fr, Sp, Po Sub]


    • Комментарии (0):

      Информация

      Информация

        Посетители, находящиеся в группе Гости, не могут оставлять комментарии в данной новости.

        ↓ Меню




        ↓ Опрос

        Вы добавили сайт в закладки?
        Да
        Нет


        Top 10 за месяц (Фильмы)