.
Авторизация | Регистрация
Хочешь лучшие торренты? Добавь свой email!
Добавить

Торрент скачать бесплатно

» » Уйти, чтобы вернуться (2014) WEBRip (серии 1-16 из 16) торрент скачать бесплатно




    Уйти, чтобы вернуться (2014) WEBRip (серии 1-16 из 16) торрент скачать бесплатно

    Опубликовал: Админ | Дата: 4-05-2016, 04:00 | Просмотров: 8

    Производство: Россия/Кинокомпания Русское
    Жанр: Мелодрама
    Режиссер: Егор Анашкин

    Актеры
    Дарья Щербакова, Карина Разумовская, Владимир Жеребцов, Юлия Галкина, Алексей Зубков, Дмитрий Щербина, Юрий Цурило, Анатолий Узденский, Екатерина Дурова, Алексей Макаров и др...

    Описание

    Алиса — завидная невеста: умница, красавица и наследница огромного состояния. Вопреки ожиданиям, девушка с тонким вкусом влюбляется в заурядного парня — у Игоря нет ни денег, ни особых талантов. Отец Алисы, чувствуя нечистые намерения будущего зятя, до последнего пытается отговорить девушку от свадьбы, но впустую. Идя под венец, Алиса и подумать не могла, каким ужасом обернется ее замужество и как далеко Игорь может зайти в стремлении дорваться до власти, которой у него никогда не было…

    Продолжительность: ~ 00: 44: 00 серия
    Качество видео: WEBRip
    Видео: Xvid, 720x400 (16: 9), ~1509 Kbps
    Аудио: AC3, 2 ch, 192 Kbps, CBR
    Код:

    Общее
    Полное имя : D:Мои фильмыUjti_chtoby_vernut\'sja_1-16iz16_2014_XviD_WEBRipUjti_chtoby_vernut\'sja_01_WEBRip.avi
    Формат : AVI
    Формат/Информация : Audio Video Interleave
    Размер файла : 555 Мбайт
    Продолжительность : 45 м.
    Общий поток : 1710 Кбит/сек
    Программа кодирования : VirtualDubMod 1.5.10.3 | (build 2550/release)
    Библиотека кодирования : VirtualDub build 35491/release
    Видео
    Идентификатор : 0
    Формат : MPEG-4 Visual
    Профиль формата : Advanced Simple@L5
    Параметр BVOP формата : 2
    Параметр QPel формата : Нет
    Параметр GMC формата : Без точки перехода
    Параметр матрицы формата : Default (H.263)
    Идентификатор кодека : XVID
    Идентификатор кодека/Подсказка : XviD
    Продолжительность : 45 м.
    Битрейт : 1509 Кбит/сек
    Ширина : 720 пикселей
    Высота : 400 пикселей
    Соотношение сторон : 16:9
    Частота кадров : 25, 000 кадров/сек
    Цветовое пространство : YUV
    Субдискретизация насыщенности : 4:2:0
    Битовая глубина : 8 бит
    Тип развёртки : Прогрессивная
    Метод сжатия : С потерями
    Бит/(Пиксели*Кадры) : 0.210
    Размер потока : 490 Мбайт (88%)
    Библиотека кодирования : XviD 67
    Аудио
    Идентификатор : 1
    Формат : AC-3
    Формат/Информация : Audio Coding 3
    Расширение режима : CM (complete main)
    Параметр Endianness формата : Big
    Идентификатор кодека : 2000
    Продолжительность : 45 м.
    Вид битрейта : Постоянный
    Битрейт : 192 Кбит/сек
    Каналы : 2 канала
    Расположение каналов : Front: L R
    Частота : 48, 0 КГц
    Частота кадров : 31, 250 кадров/сек (1536 spf)
    Метод сжатия : С потерями
    Размер потока : 62, 3 Мбайт (11%)
    Выравнивание : Соединение по промежуткам
    Продолжительность промежутка : 40 мс. (1, 00 видеокадр)
    Время предзагрузки промежутка : 512 мс.


    Скриншоты для ознакомления




    Онлайн видео Уйти, чтобы вернуться (2014) WEBRip (серии 1



    Уйти, чтобы вернуться (2014) WEBRip (серии 1-16 из 16)
    загрузка...
    Рейтинг →
     (голосов: 1, оценка 5/5, голосовать можно 1 раз )

    Другие торренты по теме:

  • Право голоса. Великобритания - ЕС. Уйти или остаться (29.05.2015) SATRip скачать через торрент бесплатно
  • Красиво уйти / Going in Style (1979) DVDRip
  • Ромэн Сарду | Никому не уйти (2008) [FB2]
  • VA - Going in Style / Уйти красиво (Original Motion Picture Soundtrack) (2017) [MP3|320 кб / с]<Soundtrack>
  • VA - Going in Style / Уйти красиво (Original Motion Picture Soundtrack) (2017) [FLAC|Lossless|WEB-DL|tracks]<Soundtrack>
  • Уйти красиво / Going in Style (2017) CAMRip [AD]
  • Уйти красиво / Going in Style (2017) WEB-DL [H.264 / 720p-LQ]
  • Уйти красиво / Going in Style (2017) WEB-DL [H.264 / 1080p-LQ]


    • Комментарии (0):

      Информация

      Информация

        Посетители, находящиеся в группе Гости, не могут оставлять комментарии в данной новости.

        ↓ Меню




        ↓ Опрос

        Вы добавили сайт в закладки?
        Да
        Нет


        Top 10 за месяц (Фильмы)