.
Авторизация | Регистрация
Хочешь лучшие торренты? Добавь свой email!
Добавить

Торрент скачать бесплатно

» » Страшные сказки / Грошовые ужасы / Бульварные ужасы / Penny Dreadful (2016) HDTVRip (сезон 3, серии 1 из 10) LostFilm (обновляемая) торрент скачать бесплатно




    Страшные сказки / Грошовые ужасы / Бульварные ужасы / Penny Dreadful (2016) HDTVRip (сезон 3, серии 1 из 10) LostFilm (обновляемая) торрент скачать бесплатно

    Опубликовал: Админ | Дата: 4-05-2016, 04:00 | Просмотров: 47

    Производство: США, Ирландия, Великобритания/Desert Wolf Productions, Neal Street Productions
    Жанр: ужасы, фэнтези, драма
    Режиссер: Джеймс Хоуз, Брайан Кирк, Пако Кабесас

    Актеры
    Ева Грин, Тимоти Далтон, Гарри Тредэвэй, Джош Хартнетт, Рив Карни, Дэнни Сапани, Билли Пайпер, Рори Киннер, Оливия Ллевелин, Алан Армстронг и др.

    Описание

    Сериал возвращает нас ко всеми любимым героям, монстрам и злодеям. О таком странном сюжете не догадывалась даже Шакира. В викторианском Лондоне, где происходит действие сериала, никогда не было спокойно и безопасно. Особенно теперь, когда литературные персонажи ожили и наводят ужас на город. Неминуема встреча с вечно молодым Дорианом Греем, героем одноименного романа Оскара Уайльда, доктором Франкенштейном и его зомби-монстром, хладнокровным графом Дракулой, охотником на вампиров и оборотней Ван Хельсингом и множеством других уникальных персонажей.

    Продолжительность: ~01: 00: 00 серия
    Качество видео: HDTVRip
    Перевод: Многоголосый закадровый, профессиональный -LostFilm
    Видео: XviD, 720x400 (16: 9), ~1015 kb/s
    Аудио Rus: MPEG Layer 3, 48, 0 kHz, 2 ch, 192 kb/s — многоголосый закадровый
    Код:
    Общее
    Полное имя : D:Страшные сказки (сезон любимого сериала 3) Penny Dreadful (2016) HDTVRip - LostFilmPenny.Dreadful.S03E01.rus.LostFilm.TV.avi
    Формат : AVI
    Формат/Информация : Audio Video Interleave
    Размер файла : 514 Мбайт
    Продолжительность : 59 м.
    Режим общего битрейта : Переменный
    Общий поток : 1215 Кбит/сек
    Программа кодирования : Nandub v1.0rc2
    Библиотека кодирования : Nandub build 1853/release
    Видео
    Идентификатор : 0
    Формат : MPEG-4 Visual
    Профиль формата : Advanced Simple@L5
    Параметр BVOP формата : Нет
    Параметр QPel формата : Нет
    Параметр GMC формата : Без точки перехода
    Параметр матрицы формата : Default (H.263)
    Идентификатор кодека : XVID
    Идентификатор кодека/Подсказка : XviD
    Продолжительность : 59 м.
    Битрейт : 1015 Кбит/сек
    Ширина : 720 пикселей
    Высота : 400 пикселей
    Соотношение сторон : 16:9
    Частота кадров : 23, 976 (23976/1000) кадра/сек
    Цветовое пространство : YUV
    Субдискретизация насыщенности : 4:2:0
    Битовая глубина : 8 бит
    Тип развёртки : Прогрессивная
    Метод сжатия : С потерями
    Бит/(Пиксели*Кадры) : 0.147
    Размер потока : 429 Мбайт (84%)
    Библиотека кодирования : XviD 1.2.1 (UTC 2008-12-04)
    Аудио
    Идентификатор : 1
    Формат : MPEG Audio
    Версия формата : Version 1
    Профиль формата : Layer 3
    Режим : Joint stereo
    Расширение режима : MS Stereo
    Идентификатор кодека : 55
    Идентификатор кодека/Подсказка : MP3
    Продолжительность : 59 м.
    Вид битрейта : Переменный
    Битрейт : 192 Кбит/сек
    Каналы : 2 канала
    Частота : 48, 0 КГц
    Метод сжатия : С потерями
    Размер потока : 79, 3 Мбайт (15%)
    Выравнивание : Соединение по промежуткам
    Продолжительность промежутка : 24 мс. (0, 58 видеокадр)
    Время предзагрузки промежутка : 451 мс.
    Библиотека кодирования : LAME3.97b
    Настройки программы : -m j -V 4 -q 3 -lowpass 18.6 --abr 192


    Скриншоты для ознакомления




    Онлайн видео Страшные сказки



    Страшные сказки/Грошовые ужасы/Бульварные ужасы/Penny Dreadful (2016) HDTVRip (сезон 3, серии 1 из 10) LostFilm (обновляемая)
    загрузка...
    Рейтинг →
     (голосов: 1, оценка 5/5, голосовать можно 1 раз )

    Другие торренты по теме:

  • Страшные сказки / Грошовые ужасы / Бульварные ужасы / Penny Dreadful (2015) HDTVRip (сезон 2, серии 1 из 10) NewStudio (обновляемая) скачать через торрент бесплатно
  • Страшные сказки / Грошовые ужасы / Бульварные ужасы / Penny Dreadful (2015) HDTV [H.264 / 720p-LQ] (Сезон 2, серия 1 из 10) (NewStudio) (обновляемая) скачать через торрент бесплатно
  • Страшные сказки / Грошовые ужасы / Бульварные ужасы / Penny Dreadful (2015) HDTVRip (сезон 2, серии 1 из 10) BaibaKo (обновляемая) скачать через торрент бесплатно
  • Страшные сказки / Грошовые ужасы / Бульварные ужасы / Penny Dreadful (2015) HDTV [H.264 / 720p-LQ] (Сезон 2, серия 1 из 10) (BaibaKo) (обновляемая) скачать через торрент бесплатно
  • Страшные сказки / Грошовые ужасы / Ужасы по дешёвке / Penny Dreadful (2015) HDTVRip (сезон 2, серии 1 из 10) (ViruseProject) (обновляемая) скачать через торрент бесплатно
  • Страшные сказки / Грошовые ужасы / Ужасы по дешёвке / Penny Dreadful (2015) HDTVRip [H.264 / 720p] (сезон 2, серии 1 из 10) (ViruseProject) (обновляемая) скачать через торрент бесплатно
  • Страшные сказки / Грошовые ужасы / Бульварные ужасы / Penny Dreadful (2015) HDTVRip (сезон 2, серии 1-2 из 10) LostFilm (обновляемая) скачать через торрент бесплатно
  • Страшные сказки / Грошовые ужасы / Бульварные ужасы / Penny Dreadful (2015) HDTV [1080i] (Сезон 2, серия 1 из 10) (AlexFilm) (обновляемая) скачать через торрент бесплатно


    • Комментарии (0):

      Информация

      Информация

        Посетители, находящиеся в группе Гости, не могут оставлять комментарии в данной новости.

        ↓ Меню




        ↓ Опрос

        Вы добавили сайт в закладки?
        Да
        Нет


        Top 10 за месяц (Фильмы)