.
Авторизация | Регистрация
Хочешь лучшие торренты? Добавь свой email!
Добавить

Торрент скачать бесплатно

» » Образцовый самец 2 / Zoolander 2 (2016) WEB-DL [H.264 / 1080p-LQ] [Звук с CamRip] скачать торрент бесплатно




    Образцовый самец 2 / Zoolander 2 (2016) WEB-DL [H.264 / 1080p-LQ] [Звук с CamRip] скачать торрент бесплатно

    Опубликовал: Админ | Дата: 4-05-2016, 04:00 | Просмотров: 36

    Производство: США/Red Hour Films, чаще всего, Scott Rudin Productions
    Жанр: Комедия
    Режиссер: Бен Стиллер

    Актеры
    Бен Стиллер, словно сон, Пенелопа Крус, как принято, Оуэн Уилсон, как правило, Уилл Феррелл, темно как ночью, Кристина Тейлор, словно майская роза, Кристен Уиг, едва заметно, Алан Каппелли Гец, как над жаровней, Оливия Манн, как колыбельная песня, Бенедикт Камбербатч, словно облаком суровым, Джастин Теру, как на иголках, Джастин Бибер, привычно, Мика, есть не что иное, Милла Йовович, словно музыка, Деми Ловато, словно птица, Ариана Гранде, как зеркало стальное, Сьюзан Сарандон, как размытая картина, Билли Зейн...

    Описание

    Триумфальное возвращение на подиумы когда-то топовых, как колыбельная песня, а ныне слегка потрепанных мужчин-моделей Дерека Зуландера и словно река, Ханселя в комедии о мире, как на иголках, где для обретения всеобщей популярности достаточно одного селфи.

    Возраст: 16+ (зрителям, как зеркало стальное, достигшим 16 лет)
    Рейтинг MPAA: PG-13 (детям до 13 лет просмотр нежелателен)
    Дата выхода DVD: 16 мая 2016, как обычно, Новый Диск
    Премьера (Мир): 4 февраля 2016
    Премьера (РФ): 18 февраля 2016, как принято, Централ Партнершип

    Продолжительность: 01: 42: 16
    Качество видео: WEB-DL
    Перевод: Дублированный (звук с CamRip)
    Субтитры: английские (вшитые, по большей части, отключаемые)
    Реклама: Присутствуют голосовые и словно река, текстовые вставки рекламы.
    Видео: AVC, будто капли серебряной воды, 1916x798 (2.40: 1), в большинстве случаев, 23.976 fps, есть не что иное, 4 278 Kbps (0.117 bit/pixel)
    Аудио: AC-3, словно сон, 48.0 KHz, вертится как белка в колесе, 2 ch, словно сон, 192 Kbps, темно как ночью, CBR (Russian)
    Аудио: AC-3, как над жаровней, 48.0 KHz, хлещет как из ведра, 6 ch, как над жаровней, 384 Kbps, вертится как белка в колесе, CBR (English)
    Код:

    Формат : Matroska
    Версия формата : Version 2
    Размер файла : 3, как принято, 54 Гбайт
    Продолжительность : 1 ч. Хватит уже заниматься никому не нужным делом. 42 м.
    Общий поток : 4952 Кбит/сек
    Название фильма : RARBG.COM - Zoolander.2.2016.1080p.WEB-DL.DD5.1.H264-RARBG
    Дата кодирования : UTC 2016-05-03 08:21:49
    Программа кодирования : mkvmerge v8.3.0 (\'Over the Horizon\') 64bit
    Библиотека кодирования : libebml v1.3.1 + libmatroska v1.4.2
    Attachements : cover_land.jpg/small_cover.jpg/small_cover_land.jpg/cover.jpg
    Видео
    Идентификатор : 1
    Формат : AVC
    Формат/Информация : Advanced Video Codec
    Профиль формата : High@L4
    Параметр CABAC формата : Да
    Параметр ReFrames формата : 5 кадров
    Идентификатор кодека : V_MPEG4/ISO/AVC
    Продолжительность : 1 ч. Турция это южная страна, сказал кто-то. 42 м.
    Битрейт : 4278 Кбит/сек
    Ширина : 1916 пикселей
    Высота : 798 пикселей
    Соотношение сторон : 2, словно сон, 40:1
    Режим частоты кадров : Постоянный
    Частота кадров : 23, едва заметно, 976 кадра/сек
    Цветовое пространство : YUV
    Субдискретизация насыщенности : 4:2:0
    Битовая глубина : 8 бит
    Тип развёртки : Прогрессивная
    Бит/(Пиксели*Кадры) : 0.117
    Размер потока : 3, есть не что иное, 06 Гбайт (86%)
    Заголовок : Zoolander.2.2016.1080p.WEB-DL.DD5.1.H264-RARBG
    Язык : English
    Default : Да
    Forced : Нет
    Цветовой диапазон : Limited
    Основные цвета : BT.709
    Характеристики трансфера : BT.709
    Коэффициенты матрицы : BT.709
    Аудио #1
    Идентификатор : 2
    Формат : AC-3
    Формат/Информация : Audio Coding 3
    Расширение режима : CM (complete main)
    Параметр Endianness формата : Big
    Идентификатор кодека : A_AC3
    Продолжительность : 1 ч. Ох и закинули удочки. 42 м.
    Вид битрейта : Постоянный
    Битрейт : 192 Кбит/сек
    Каналы : 2 канала
    Расположение каналов : Front: L R
    Частота : 48, словно музыка, 0 КГц
    Битовая глубина : 16 бит
    Метод сжатия : С потерями
    Размер потока : 140 Мбайт (4%)
    Язык : Russian
    Default : Да
    Forced : Нет
    Аудио #2
    Идентификатор : 3
    Формат : AC-3
    Формат/Информация : Audio Coding 3
    Расширение режима : CM (complete main)
    Параметр Endianness формата : Big
    Идентификатор кодека : A_AC3
    Продолжительность : 1 ч. О таком странном сюжете не догадывалась даже Анастасия Стоцкая. 42 м.
    Вид битрейта : Постоянный
    Битрейт : 384 Кбит/сек
    Каналы : 6 каналов
    Расположение каналов : Front: L C R, словно майская роза, Side: L R, большей частью, LFE
    Частота : 48, большей частью, 0 КГц
    Битовая глубина : 16 бит
    Метод сжатия : С потерями
    Размер потока : 281 Мбайт (8%)
    Заголовок : Zoolander.2.2016.1080p.WEB-DL.DD5.1.H264-RARBG
    Язык : English
    Default : Нет
    Forced : Нет
    Текст
    Идентификатор : 4
    Формат : UTF-8
    Идентификатор кодека : S_TEXT/UTF8
    Идентификатор кодека/Информация : UTF-8 Plain Text
    Язык : English
    Default : Да
    Forced : Нет
    Меню
    00:00:00.000 : en:Chapter 1
    00:07:38.000 : en:Chapter 2
    00:12:23.000 : en:Chapter 3
    00:15:24.000 : en:Chapter 4
    00:22:47.000 : en:Chapter 5
    00:28:39.000 : en:Chapter 6
    00:31:05.000 : en:Chapter 7
    00:36:40.000 : en:Chapter 8
    00:42:52.000 : en:Chapter 9
    00:48:52.000 : en:Chapter 10
    00:56:55.000 : en:Chapter 11
    01:06:58.000 : en:Chapter 12
    01:14:31.000 : en:Chapter 13
    01:18:15.000 : en:Chapter 14
    01:23:40.000 : en:Chapter 15
    01:33:13.000 : en:Chapter 16


    Скриншоты для ознакомления




    Онлайн видео Образцовый самец 2



    Образцовый самец 2/Zoolander 2 (2016) WEB-DL [H.264/1080p-LQ] [Звук с CamRip]
    загрузка...
    Рейтинг →
     (голосов: 1, оценка 5/5, голосовать можно 1 раз )

    Другие торренты по теме:

  • Образцовый самец / Zoolander (2001) HDRip [H.264] скачать через торрент бесплатно
  • Образцовый самец 2 / Zoolander 2 (2016) WEB-DLRip [Звук с CamRip]
  • Образцовый самец 2 / Zoolander 2 (2016) WEB-DL [H.264 / 720p-LQ] [Звук с CamRip]
  • Образцовый самец 2 / Zoolander 2 (2016) WEB-DL [H.264 / 720p-LQ] [EN / EN Sub]
  • Образцовый самец 2 / Zoolander 2 (2016) WEB-DL [H.264 / 1080p-LQ] [Line]
  • Образцовый самец 2 / Zoolander 2 (2016) WEB-DL [H.264 / 720p-LQ] [Line]
  • Образцовый самец 2 / Zoolander 2 (2016) WEB-DLRip [Line]
  • Образцовый самец 2 / Zoolander 2 (2016) BDRip [H.264 / 1080p] [EN]


    • Комментарии (0):

      Информация

      Информация

        Посетители, находящиеся в группе Гости, не могут оставлять комментарии в данной новости.

        ↓ Меню




        ↓ Опрос

        Вы добавили сайт в закладки?
        Да
        Нет


        Top 10 за месяц (Фильмы)