.
Авторизация | Регистрация
Хочешь лучшие торренты? Добавь свой email!
Добавить

Торрент скачать бесплатно

» » Образцовый самец 2 / Zoolander 2 (2016) WEB-DLRip [Звук с CamRip] торрент скачать бесплатно




    Образцовый самец 2 / Zoolander 2 (2016) WEB-DLRip [Звук с CamRip] торрент скачать бесплатно

    Опубликовал: Админ | Дата: 4-05-2016, 04:00 | Просмотров: 36

    Производство: США/Red Hour Films, Scott Rudin Productions
    Жанр: Комедия
    Режиссер: Бен Стиллер

    Актеры
    Бен Стиллер, Пенелопа Крус, Оуэн Уилсон, Уилл Феррелл, Кристина Тейлор, Кристен Уиг, Алан Каппелли Гец, Оливия Манн, Бенедикт Камбербатч, Джастин Теру, Джастин Бибер, Мика, Милла Йовович, Деми Ловато, Ариана Гранде, Сьюзан Сарандон, Билли Зейн...

    Описание

    Триумфальное возвращение на подиумы когда-то топовых, а ныне слегка потрепанных мужчин-моделей Дерека Зуландера и Ханселя в комедии о мире, где для обретения всеобщей популярности достаточно одного селфи.

    Возраст: 16+ (зрителям, достигшим 16 лет)
    Рейтинг MPAA: PG-13 (детям до 13 лет просмотр нежелателен)
    Дата выхода DVD: 16 мая 2016, Новый Диск
    Премьера (Мир): 4 февраля 2016
    Премьера (РФ): 18 февраля 2016, Централ Партнершип

    Продолжительность: 01: 42: 16
    Качество видео: WEB-DLRip
    Перевод: Дублированный (звук с CamRip)
    Субтитры: Отсутствуют
    Реклама: Присутствуют голосовые и текстовые вставки рекламы.
    Видео: MPEG4, XviD, 720x304 (2.35: 1), 23.976 fps, 1 712 Kbps (0.326 bit/pixel)
    Аудио: AC-3, 48.0 KHz, 2 ch, 192 Kbps, CBR
    Код:

    Формат : AVI
    Формат/Информация : Audio Video Interleave
    Размер файла : 1, 37 Гбайт
    Продолжительность : 1 ч. 42 м.
    Общий поток : 1912 Кбит/сек
    Программа кодирования : VirtualDubMod 1.5.10.2 (build 2540/release)
    Библиотека кодирования : VirtualDubMod build 2540/release
    Видео
    Идентификатор : 0
    Формат : MPEG-4 Visual
    Профиль формата : Advanced Simple@L5
    Параметр BVOP формата : 2
    Параметр QPel формата : Нет
    Параметр GMC формата : Без точки перехода
    Параметр матрицы формата : Default (MPEG)
    Идентификатор кодека : XVID
    Идентификатор кодека/Подсказка : XviD
    Продолжительность : 1 ч. 42 м.
    Битрейт : 1712 Кбит/сек
    Ширина : 720 пикселей
    Высота : 304 пикселя
    Соотношение сторон : 2, 35:1
    Частота кадров : 23, 976 кадра/сек
    Цветовое пространство : YUV
    Субдискретизация насыщенности : 4:2:0
    Битовая глубина : 8 бит
    Тип развёртки : Прогрессивная
    Метод сжатия : С потерями
    Бит/(Пиксели*Кадры) : 0.326
    Размер потока : 1, 22 Гбайт (90%)
    Библиотека кодирования : XviD 1.2.1 (UTC 2008-12-04)
    Аудио
    Идентификатор : 1
    Формат : AC-3
    Формат/Информация : Audio Coding 3
    Расширение режима : CM (complete main)
    Параметр Endianness формата : Big
    Идентификатор кодека : 2000
    Продолжительность : 1 ч. 41 м.
    Вид битрейта : Постоянный
    Битрейт : 192 Кбит/сек
    Каналы : 2 канала
    Расположение каналов : Front: L R
    Частота : 48, 0 КГц
    Битовая глубина : 16 бит
    Метод сжатия : С потерями
    Размер потока : 140 Мбайт (10%)
    Выравнивание : Разделение по промежуткам
    Продолжительность промежутка : 42 мс. (1, 00 видеокадр)
    Время предзагрузки промежутка : 500 мс.


    Скриншоты для ознакомления




    Онлайн видео Образцовый самец 2



    Образцовый самец 2/Zoolander 2 (2016) WEB-DLRip [Звук с CamRip]
    загрузка...
    Рейтинг →
     (голосов: 1, оценка 3/5, голосовать можно 1 раз )

    Другие торренты по теме:

  • Образцовый самец / Zoolander (2001) HDRip [H.264] скачать через торрент бесплатно
  • Образцовый самец 2 / Zoolander 2 (2016) WEB-DL [H.264 / 720p-LQ] [Звук с CamRip]
  • Образцовый самец 2 / Zoolander 2 (2016) WEB-DL [H.264 / 1080p-LQ] [Звук с CamRip]
  • Образцовый самец 2 / Zoolander 2 (2016) WEB-DL [H.264 / 720p-LQ] [EN / EN Sub]
  • Образцовый самец 2 / Zoolander 2 (2016) WEB-DL [H.264 / 1080p-LQ] [Line]
  • Образцовый самец 2 / Zoolander 2 (2016) WEB-DL [H.264 / 720p-LQ] [Line]
  • Образцовый самец 2 / Zoolander 2 (2016) WEB-DLRip [Line]
  • Образцовый самец 2 / Zoolander 2 (2016) BDRip [H.264 / 1080p] [EN]


    • Комментарии (0):

      Информация

      Информация

        Посетители, находящиеся в группе Гости, не могут оставлять комментарии в данной новости.

        ↓ Меню




        ↓ Опрос

        Вы добавили сайт в закладки?
        Да
        Нет


        Top 10 за месяц (Фильмы)