.
Авторизация | Регистрация
Хочешь лучшие торренты? Добавь свой email!
Добавить

Торрент скачать бесплатно

» » Моя земля / Under sandet (2015) BDRip [H.264 / 1080p] торрент скачать бесплатно




    Моя земля / Under sandet (2015) BDRip [H.264 / 1080p] торрент скачать бесплатно

    Опубликовал: Админ | Дата: 4-05-2016, 04:00 | Просмотров: 10

    Производство: Дания, Германия/Amusement Park Films, Nordisk Film A/S, Zweites Deutsches Fernsehen (ZDF)
    Жанр: Драма, Военный, История
    Режиссер: Мартин Зандвлиет

    Актеры
    Роланд Мюллер, Миккель Боэ Фёльсгор, Луис Хофманн, Йоэль Басман, Оскар Бёкельманн, Эмиль Бушов, Оскар Бушов, Леон Зайдель, Лаура Бро...

    Описание

    Дания, май 1945 г. Для очистки датского западного побережья от немецких наземных мин привлечены две тысячи немецких военнопленных. В распоряжение сержанта датской армии Карла Рассмусена поступают 14 юнцов. Они вынуждены учиться нелёгкому сапёрному делу, в котором ошибаются только один раз.

    Рейтинг MPAA: R (лицам до 17 лет обязательно присутствие взрослого)
    Премьера (Мир): 10 сентября 2015
    Премьера (РФ): 25 апреля 2016
    Продолжительность: 01: 40: 45
    Качество видео: BDRip 1080p
    Перевод: Любительский одноголосый закадровый (zamez)
    Язык субтитров: Русский, Английский
    Вид субтитров: Вшитые отключаемые
    Видео: AVC, 1920x808 (2.35: 1), 24.000 fps, 9 356 Kbps (0.251 bit/pixel)
    Аудио #1: AC-3, 48.0 KHz, 6 ch, 448 Kbps, CBR (Russian zamez)
    Аудио #2: DTS, 48.0 KHz, 6 ch, 1 510 Kbps, CBR (Danish)
    Код:

    General
    Unique ID : 179346402012378693509982525709897468988 (0x86ECDC50A244F6858454C50C04148C3C)
    Complete name : I:Under.Sandet.2015.BDRip.1080p.NNMCLUB.mkv
    Format : Matroska
    Format version : Version 4/Version 2
    File size : 7.96 GiB
    Duration : 1h 40mn
    Overall bit rate : 11.3 Mbps
    Encoded date : UTC 2016-05-03 05:51:48
    Writing application : mkvmerge v9.1.0 (\'Little Earthquakes\') 64bit
    Writing library : libebml v1.3.3 + libmatroska v1.4.4
    Video
    ID : 1
    Format : AVC
    Format/Info : Advanced Video Codec
    Format profile :High@L4.1
    Format settings, CABAC : Yes
    Format settings, ReFrames : 5 frames
    Codec ID : V_MPEG4/ISO/AVC
    Duration : 1h 40mn
    Bit rate : 9 356 Kbps
    Width : 1 920 pixels
    Height : 808 pixels
    Display aspect ratio : 2.40:1
    Frame rate mode : Constant
    Frame rate : 24.000 fps
    Color space : YUV
    Chroma subsampling : 4:2:0
    Bit depth : 8 bits
    Scan type : Progressive
    Bits/(Pixel*Frame) : 0.251
    Stream size : 6.58 GiB (83%)
    Title : NNMCLUB
    Writing library : x264 core 148 r2692 64f4e24
    Encoding settings : cabac=1/ref=5/deblock=1:0:0/analyse=0x3:0x133/me=umh/subme=7/psy=1/psy_rd=1.00:0.00/mixed_ref=1/me_range=16/chroma_me=1/trellis=1/8x8dct=1/cqm=0/deadzone=21, 11/fast_pskip=0/chroma_qp_offset=-2/threads=12/lookahead_threads=2/sliced_threads=0/nr=0/decimate=1/interlaced=0/bluray_compat=0/constrained_intra=0/bframes=3/b_pyramid=2/b_adapt=1/b_bias=0/direct=1/weightb=1/open_gop=0/weightp=2/keyint=250/keyint_min=24/scenecut=40/intra_refresh=0/rc_lookahead=40/rc=2pass/mbtree=1/bitrate=9356/ratetol=1.0/qcomp=0.60/qpmin=0/qpmax=69/qpstep=4/cplxblur=20.0/qblur=0.5/ip_ratio=1.40/aq=1:1.00
    Language : Danish
    Default : Yes
    Forced : No
    Audio #1
    ID : 2
    Format : AC-3
    Format/Info : Audio Coding 3
    Mode extension : CM (complete main)
    Format settings, Endianness : Big
    Codec ID : A_AC3
    Duration : 1h 40mn
    Bit rate mode : Constant
    Bit rate : 448 Kbps
    Channel(s) : 6 channels
    Channel positions : Front: L C R, Side: L R, LFE
    Sampling rate : 48.0 KHz
    Frame rate : 31.250 fps (1536 spf)
    Compression mode : Lossy
    Stream size : 323 MiB (4%)
    Title : zamez
    Language : Russian
    Default : Yes
    Forced : Yes
    Audio #2
    ID : 3
    Format : DTS
    Format/Info : Digital Theater Systems
    Mode : 16
    Format settings, Endianness : Big
    Codec ID : A_DTS
    Duration : 1h 40mn
    Bit rate mode : Constant
    Bit rate : 1 509 Kbps
    Channel(s) : 6 channels
    Channel positions : Front: L C R, Side: L R, LFE
    Sampling rate : 48.0 KHz
    Frame rate : 93.750 fps (512 spf)
    Bit depth : 24 bits
    Compression mode : Lossy
    Stream size : 1.06 GiB (13%)
    Language : Danish
    Default : No
    Forced : No
    Text #1
    ID : 4
    Format : UTF-8
    Codec ID : S_TEXT/UTF8
    Codec ID/Info : UTF-8 Plain Text
    Duration : 1h 34mn
    Bit rate : 57 bps
    Count of elements : 672
    Stream size : 39.9 KiB (0%)
    Language : Russian
    Default : No
    Forced : No
    Text #2
    ID : 5
    Format : UTF-8
    Codec ID : S_TEXT/UTF8
    Codec ID/Info : UTF-8 Plain Text
    Duration : 1h 34mn
    Bit rate : 31 bps
    Count of elements : 686
    Stream size : 21.7 KiB (0%)
    Language : English
    Default : No
    Forced : No


    Скриншоты для ознакомления




    Онлайн видео Моя земля



    Моя земля/Under sandet (2015) BDRip [H.264/1080p]
    загрузка...
    Рейтинг →
     (голосов: 1, оценка 5/5, голосовать можно 1 раз )

    Другие торренты по теме:

  • Моя земля / Under sandet (2015) BDRip [H.264 / 1080p] [DAN / RU, DAN Sub]
  • Моя земля / Under sandet (2015) HDRip
  • Моя земля / Under sandet / Land Of Mine (2015) BDRip [H.264 / 720p]
  • Моя земля / Under sandet (2015) BDRip [H.264 / 1080p] [PR]
  • Моя земля / Under sandet (2015) BDRip [H.264 / 1080p]


    • Комментарии (0):

      Информация

      Информация

        Посетители, находящиеся в группе Гости, не могут оставлять комментарии в данной новости.

        ↓ Меню




        ↓ Опрос

        Вы добавили сайт в закладки?
        Да
        Нет


        Top 10 за месяц (Фильмы)