.
Авторизация | Регистрация
Хочешь лучшие торренты? Добавь свой email!
Добавить

Торрент скачать бесплатно

» » Вычисленное счастье / Jаchyme, hod ho do stroje! (1974) DVDRip [H.264] [Полная версия] торрент скачать бесплатно




    Вычисленное счастье / Jаchyme, hod ho do stroje! (1974) DVDRip [H.264] [Полная версия] торрент скачать бесплатно

    Опубликовал: Админ | Дата: 4-05-2016, 04:00 | Просмотров: 14

    Производство: Чехословакия/Filmové Studio Barrandov
    Жанр: Комедия
    Режиссер: Ольдржих Липский

    Актеры
    Людек Собота, Марта Ванчурова, Вера Фербасова, Джозеф Двожак, Ладислав Смоляк, Зденек Сверак, Карел Новак, Вацлав Логниский, Ева Фидлерова, Франтишек Гусак

    Описание

    Молодой парень по пути в город покупает электронное пророчество, в котором указаны счастливые и невезучие дни его жизни. По природе застенчивый и нескладный, он начинает жить по расписанию и в удачный день смело бросается в бой.

    Релиз от: Охрана (NNM-CLUB)
    Продолжительность: 01: 33: 45
    Качество видео: DVDRip
    Перевод: Дублированный (киностудия Мосфильм)
    Субтитры: Русские (вшитые отключаемые), на сцены без перевода
    Видео: AVC/H.264, 720x544, ~1772 Kbps
    Аудио 1: AC3, 1 ch, 128 Kbps, 48.0 kHz │ Русский
    Аудио 2: AC3, 2 ch, 192 Kbps, 48.0 kHz │ Чешский
    Код:

    General
    Unique ID : 209141038933092661245278669814989864137 (0x9D571954AA7C3272B776E7464DEC3CC9)
    Complete name : F:DownloadsВычисленное счастье. 1974. NNMCLUB.mkv
    Format : Matroska
    Format version : Version 4/Version 2
    File size : 1.37 GiB
    Duration : 1h 33mn
    Overall bit rate : 2 095 Kbps
    Encoded date : UTC 2016-05-03 02:57:37
    Writing application : mkvmerge v7.0.0 (\'Where We Going\') 32bit built on Jun 9 2014 15:08:34
    Writing library : libebml v1.3.0 + libmatroska v1.4.1
    DURATION : 01:33:33.826000000
    NUMBER_OF_FRAMES : 168
    NUMBER_OF_BYTES : 251347
    _STATISTICS_WRITING_APP : mkvmerge v7.0.0 (\'Where We Going\') 32bit built on Jun 9 2014 15:08:34
    _STATISTICS_WRITING_DATE_UTC : 2016-05-03 02:57:37
    _STATISTICS_TAGS : BPS DURATION NUMBER_OF_FRAMES NUMBER_OF_BYTES
    Video
    ID : 1
    Format : AVC
    Format/Info : Advanced Video Codec
    Format profile :High@L3.1
    Format settings, CABAC : Yes
    Format settings, ReFrames : 8 frames
    Codec ID : V_MPEG4/ISO/AVC
    Duration : 1h 33mn
    Bit rate : 1 772 Kbps
    Width : 720 pixels
    Height : 544 pixels
    Display aspect ratio : 4:3
    Frame rate mode : Constant
    Frame rate : 25.000 fps
    Color space : YUV
    Chroma subsampling : 4:2:0
    Bit depth : 8 bits
    Scan type : Progressive
    Bits/(Pixel*Frame) : 0.181
    Stream size : 1.13 GiB (83%)
    Title : Jáchyme, hod ho do stroje!
    Writing library : x264 core 125 r2208 d9d2288
    Encoding settings : cabac=1/ref=8/deblock=1:-1:-1/analyse=0x3:0x133/me=umh/subme=9/psy=1/psy_rd=1.00:0.10/mixed_ref=1/me_range=32/chroma_me=1/trellis=2/8x8dct=1/cqm=0/deadzone=21, 11/fast_pskip=0/chroma_qp_offset=-3/threads=6/lookahead_threads=1/sliced_threads=0/nr=0/decimate=1/interlaced=0/bluray_compat=0/constrained_intra=0/bframes=3/b_pyramid=2/b_adapt=2/b_bias=0/direct=3/weightb=1/open_gop=0/weightp=2/keyint=250/keyint_min=25/scenecut=40/intra_refresh=0/rc_lookahead=60/rc=2pass/mbtree=1/bitrate=1772/ratetol=1.0/qcomp=0.60/qpmin=0/qpmax=69/qpstep=4/cplxblur=20.0/qblur=0.5/ip_ratio=1.40/aq=1:1.00
    Language : Czech
    Default : Yes
    Forced : No
    Audio #1
    ID : 2
    Format : AC-3
    Format/Info : Audio Coding 3
    Mode extension : CM (complete main)
    Format settings, Endianness : Big
    Codec ID : A_AC3
    Duration : 1h 33mn
    Bit rate mode : Constant
    Bit rate : 128 Kbps
    Channel(s) : 1 channel
    Channel positions : Front: C
    Sampling rate : 48.0 KHz
    Bit depth : 16 bits
    Compression mode : Lossy
    Stream size : 85.8 MiB (6%)
    Title : Дубляж, Мосфильм
    Language : Russian
    Default : Yes
    Forced : No
    Audio #2
    ID : 3
    Format : AC-3
    Format/Info : Audio Coding 3
    Mode extension : CM (complete main)
    Format settings, Endianness : Big
    Codec ID : A_AC3
    Duration : 1h 33mn
    Bit rate mode : Constant
    Bit rate : 192 Kbps
    Channel(s) : 2 channels
    Channel positions : Front: L R
    Sampling rate : 48.0 KHz
    Bit depth : 16 bits
    Compression mode : Lossy
    Stream size : 129 MiB (9%)
    Title : Оригинал
    Language : Czech
    Default : No
    Forced : No
    Text
    ID : 4
    Format : VobSub
    Muxing mode : zlib
    Codec ID : S_VOBSUB
    Codec ID/Info : The same subtitle format used on DVDs
    Title : Forced
    Language : Russian
    Default : Yes
    Forced : No


    Скриншоты для ознакомления




    Онлайн видео Вычисленное счастье



    Вычисленное счастье/Jаchyme, hod ho do stroje! (1974) DVDRip [H.264] [Полная версия]
    загрузка...
    Рейтинг →
     (голосов: 1, оценка 3/5, голосовать можно 1 раз )

    Другие торренты по теме:



      Комментарии (0):

      Информация

      Информация

        Посетители, находящиеся в группе Гости, не могут оставлять комментарии в данной новости.

        ↓ Меню




        ↓ Опрос

        Вы добавили сайт в закладки?
        Да
        Нет


        Top 10 за месяц (Фильмы)