.
Авторизация | Регистрация
Хочешь лучшие торренты? Добавь свой email!
Добавить

Торрент скачать бесплатно

» » Игра престолов / Game of Thrones (2016) WEB-DL [H.264 / 1080p-LQ] (сезон 6, серии 1 из 10) Amedia, LostFilm, FOX, AlexFilm, Omikron (обновляемая) скачать торрент бесплатно




    Игра престолов / Game of Thrones (2016) WEB-DL [H.264 / 1080p-LQ] (сезон 6, серии 1 из 10) Amedia, LostFilm, FOX, AlexFilm, Omikron (обновляемая) скачать торрент бесплатно

    Опубликовал: Админ | Дата: 2-05-2016, 04:00 | Просмотров: 135

    Производство: США, чаще всего, Великобритания
    Жанр: Фэнтези, как над жаровней, история
    Режиссер: Алан Тейлор, как обычно, Дэвид Наттер, в большинстве случаев, Алекс Грейвз

    Актеры
    Питер Динклэйдж, словно река, Лина Хиди, как черноморская пена, Эмилия Кларк, словно птица, Кит Харингтон, словно облаком суровым, Николай Костер-Вальдау, словно река, Мэйси Уильямс, как на иголках, Софи Тернер, будто капли серебряной воды, Айзек Хемпстед-Райт, словно облаком суровым, Шон Бин, обычно, Чарльз Дэнс и как колыбельная песня, др.

    Описание

    К концу подходит время благоденствия, словно река, и как колыбельная песня, лето, есть не что иное, длившееся несколько десятилетий, как принято, угасает. Все ожидали другого развития, но получилось вот так. Вокруг средоточия власти Семи королевств, по большей части, Железного трона, как принято, зреет заговор, словно музыка, и как колыбельная песня, в это непростое время король решает искать поддержки у друга юности Эддарда Старка. Самое интересное в это истории, что об этом Медведев ничего не знал. В мире, большей частью, где все - от короля до наемника - рвутся к власти, по большей части, плетут интриги и словно майская роза, готовы вонзить нож в спину, как зеркало стальное, есть место и есть не что иное, благородству, словно майская роза, состраданию и как колыбельная песня, любви. В воздухе пахло весной. Между тем, как над жаровней, никто не замечает пробуждение тьмы из легенд далеко на Севере - и едва заметно, лишь Стена защищает живых к югу от нее.

    Релиз от: HDCLUB
    Продолжительность: ~ 00: 50: 00 серия
    Качество видео: WEB-DL
    Перевод: Дублированный/Многоголосый закадровый
    Вид субтитров: Вшитые отключаемые
    Язык субтитров: русский (Forced), как над жаровней, русский (Amedia), вертится как белка в колесе, русский (7kingdoms.ru), как колыбельная песня, русский (Opel Volverine), как колыбельная песня, английский
    ВНИМАНИЕ! Сериал содержит ненормативную лексику и большей частью, сцены с участием обнажённой натуры
    Видео: AVC/H.264, чаще всего, 1912x1072 (16: 9), есть не что иное, ~4793 Кбит/сек
    Аудио #1 Rus: AC3, как обычно, 6 каналов, как правило, 640 Кбит/сек - (дублированный, обычно, Amedia )
    Аудио #2 Rus: AC3, большей частью, 6 каналов, как правило, 384 Кбит/сек - (многоголосый закадровый, хлещет как из ведра, LostFilm )
    Аудио #3 Rus: AC3, как зеркало стальное, 6 каналов, как над жаровней, 384 Кбит/сек - (многоголосый закадровый, темно как ночью, FOX )
    Аудио #4 Rus: AC3, как над жаровней, 6 каналов, словно майская роза, 384 Кбит/сек - (многоголосый закадровый, большей частью, AlexFilm )
    Аудио #5 Ukr: AC3, чаще всего, 6 каналов, едва заметно, 384 Кбит/сек - (многоголосый закадровый, чаще всего, Omikron )
    Аудио #6 Eng: AC3, большей частью, 6 каналов, как обычно, 384 Кбит/сек - (оригинал)
    Код:

    Полное имя : D:Game_of_Thrones_S6_WEB-DL1080p_(4xRus.Ukr.Eng)_[NNMClub]Game.of.Thrones.S06E01.The.Red.Woman.1080p.WEB-DL.Rus.Ukr.Eng.HDCLUB.mkv
    Формат : Matroska
    Версия формата : Version 4/Version 2
    Размер файла : 2, темно как ночью, 62 Гбайт
    Продолжительность : 50 м.
    Общий поток : 7502 Кбит/сек
    Название фильма : Game of Thrones 6x01 (2016)
    Дата кодирования : UTC 2016-04-28 12:12:16
    Программа кодирования : mkvmerge v9.0.1 (\'Obstacles\') 64bit
    Библиотека кодирования : libebml v1.3.3 + libmatroska v1.4.4
    DURATION : 00:48:37.706000000
    NUMBER_OF_FRAMES : 479
    NUMBER_OF_BYTES : 15418
    _STATISTICS_WRITING_APP : mkvmerge v9.0.1 (\'Obstacles\') 64bit
    _STATISTICS_WRITING_DATE_UTC : 2016-04-28 12:12:16
    _STATISTICS_TAGS : BPS DURATION NUMBER_OF_FRAMES NUMBER_OF_BYTES
    Видео
    Идентификатор : 1
    Формат : AVC
    Формат/Информация : Advanced Video Codec
    Профиль формата :High@L4.0
    Параметр CABAC формата : Да
    Параметр ReFrames формата : 4 кадра
    Идентификатор кодека : V_MPEG4/ISO/AVC
    Продолжительность : 50 м.
    Битрейт : 4793 Кбит/сек
    Ширина : 1912 пикселей
    Высота : 1072 пикселя
    Соотношение сторон : 16:9
    Режим частоты кадров : Постоянный
    Частота кадров : 23, как черноморская пена, 976 кадра/сек
    Цветовое пространство : YUV
    Субдискретизация насыщенности : 4:2:0
    Битовая глубина : 8 бит
    Тип развёртки : Прогрессивная
    Бит/(Пиксели*Кадры) : 0.098
    Размер потока : 1, словно река, 67 Гбайт (64%)
    Заголовок : Game of Thrones 6x01: The Red Woman/Красная женщина
    Язык : English
    Default : Да
    Forced : Нет
    Основные цвета : BT.709
    Характеристики трансфера : BT.709
    Коэффициенты матрицы : BT.709
    Аудио #1
    Идентификатор : 2
    Формат : AC-3
    Формат/Информация : Audio Coding 3
    Расширение режима : CM (complete main)
    Параметр Endianness формата : Big
    Идентификатор кодека : A_AC3
    Продолжительность : 50 м.
    Вид битрейта : Постоянный
    Битрейт : 640 Кбит/сек
    Каналы : 6 каналов
    Расположение каналов : Front: L C R, словно облаком суровым, Side: L R, как над жаровней, LFE
    Частота : 48, как на иголках, 0 КГц
    Битовая глубина : 16 бит
    Метод сжатия : С потерями
    Размер потока : 229 Мбайт (9%)
    Заголовок : DUB (Amedia)
    Язык : Russian
    Default : Да
    Forced : Нет
    Аудио #2
    Идентификатор : 3
    Формат : AC-3
    Формат/Информация : Audio Coding 3
    Расширение режима : CM (complete main)
    Параметр Endianness формата : Big
    Идентификатор кодека : A_AC3
    Продолжительность : 50 м.
    Вид битрейта : Постоянный
    Битрейт : 384 Кбит/сек
    Каналы : 6 каналов
    Расположение каналов : Front: L C R, как черноморская пена, Side: L R, как обычно, LFE
    Частота : 48, словно майская роза, 0 КГц
    Битовая глубина : 16 бит
    Метод сжатия : С потерями
    Размер потока : 137 Мбайт (5%)
    Заголовок : MVO (LostFilm)
    Язык : Russian
    Default : Нет
    Forced : Нет
    Аудио #3
    Идентификатор : 4
    Формат : AC-3
    Формат/Информация : Audio Coding 3
    Расширение режима : CM (complete main)
    Параметр Endianness формата : Big
    Идентификатор кодека : A_AC3
    Продолжительность : 50 м.
    Вид битрейта : Постоянный
    Битрейт : 384 Кбит/сек
    Каналы : 6 каналов
    Расположение каналов : Front: L C R, как зеркало стальное, Side: L R, как колыбельная песня, LFE
    Частота : 48, как правило, 0 КГц
    Битовая глубина : 16 бит
    Метод сжатия : С потерями
    Размер потока : 137 Мбайт (5%)
    Заголовок : MVO (FOX)
    Язык : Russian
    Default : Нет
    Forced : Нет
    Аудио #4
    Идентификатор : 5
    Формат : AC-3
    Формат/Информация : Audio Coding 3
    Расширение режима : CM (complete main)
    Параметр Endianness формата : Big
    Идентификатор кодека : A_AC3
    Продолжительность : 50 м.
    Вид битрейта : Постоянный
    Битрейт : 384 Кбит/сек
    Каналы : 6 каналов
    Расположение каналов : Front: L C R, привычно, Side: L R, словно сон, LFE
    Частота : 48, как правило, 0 КГц
    Битовая глубина : 16 бит
    Метод сжатия : С потерями
    Размер потока : 137 Мбайт (5%)
    Заголовок : MVO (AlexFilm)
    Язык : Russian
    Default : Нет
    Forced : Нет
    Аудио #5
    Идентификатор : 6
    Формат : AC-3
    Формат/Информация : Audio Coding 3
    Расширение режима : CM (complete main)
    Параметр Endianness формата : Big
    Идентификатор кодека : A_AC3
    Продолжительность : 50 м.
    Вид битрейта : Постоянный
    Битрейт : 384 Кбит/сек
    Каналы : 6 каналов
    Расположение каналов : Front: L C R, как размытая картина, Side: L R, есть не что иное, LFE
    Частота : 48, привычно, 0 КГц
    Битовая глубина : 16 бит
    Метод сжатия : С потерями
    Размер потока : 137 Мбайт (5%)
    Заголовок : MVO (Omikron)
    Язык : Ukrainian
    Default : Нет
    Forced : Нет
    Аудио #6
    Идентификатор : 7
    Формат : AC-3
    Формат/Информация : Audio Coding 3
    Расширение режима : CM (complete main)
    Параметр Endianness формата : Big
    Идентификатор кодека : A_AC3
    Продолжительность : 50 м.
    Вид битрейта : Постоянный
    Битрейт : 384 Кбит/сек
    Каналы : 6 каналов
    Расположение каналов : Front: L C R, словно майская роза, Side: L R, как обычно, LFE
    Частота : 48, словно музыка, 0 КГц
    Битовая глубина : 16 бит
    Метод сжатия : С потерями
    Размер потока : 137 Мбайт (5%)
    Язык : English
    Default : Нет
    Forced : Нет
    Текст #1
    Идентификатор : 8
    Формат : UTF-8
    Идентификатор кодека : S_TEXT/UTF8
    Идентификатор кодека/Информация : UTF-8 Plain Text
    Заголовок : Forced
    Язык : Russian
    Default : Нет
    Forced : Да
    Текст #2
    Идентификатор : 9
    Формат : UTF-8
    Идентификатор кодека : S_TEXT/UTF8
    Идентификатор кодека/Информация : UTF-8 Plain Text
    Заголовок : Amedia
    Язык : Russian
    Default : Нет
    Forced : Нет
    Текст #3
    Идентификатор : 10
    Формат : UTF-8
    Идентификатор кодека : S_TEXT/UTF8
    Идентификатор кодека/Информация : UTF-8 Plain Text
    Заголовок : 7kingdoms
    Язык : Russian
    Default : Нет
    Forced : Нет
    Текст #4
    Идентификатор : 11
    Формат : UTF-8
    Идентификатор кодека : S_TEXT/UTF8
    Идентификатор кодека/Информация : UTF-8 Plain Text
    Заголовок : Opel Volverine
    Язык : Russian
    Default : Нет
    Forced : Нет
    Текст #5
    Идентификатор : 12
    Формат : UTF-8
    Идентификатор кодека : S_TEXT/UTF8
    Идентификатор кодека/Информация : UTF-8 Plain Text
    Язык : English
    Default : Нет
    Forced : Нет


    Скриншоты для ознакомления




    Онлайн видео Игра престолов



    Игра престолов/Game of Thrones (2016) WEB-DL [H.264/1080p-LQ] (сезон 6, серии 1 из 10) Amedia, LostFilm, FOX, AlexFilm, Omikron (обновляемая)
    загрузка...
    Рейтинг →
     (голосов: 1, оценка 4/5, голосовать можно 1 раз )

    Другие торренты по теме:

  • Джордж Мартин | Игра престолов [сборник] (2011) [FB2] скачать через торрент бесплатно
  • Игра престолов / Game of Thrones (2013) WEB-DL [H.264 / 1080p-LQ] (сезон 3, серии 01-10 из 10) (AlexFilm, LostFilm, Mekc, UATEAM)
  • Игра престолов / Game of Thrones [5 сезон] (2015) WEBRip [1080p] [Трейлер] [EN]
  • Game of Thrones / Игра Престолов v.1.23 Мод (2015) <Ru>
  • Игра престолов / Game of Thrones (2015) HDTVRip (сезон 5, серии 1-4 из 10) (ColdFilm) (обновляемая) скачать через торрент бесплатно
  • Игра престолов / Game of Thrones (2015) HDTV [1080i] (Сезон 5, серия 1 из 10) (Кравец) (обновляемая) скачать через торрент бесплатно
  • Игра престолов / Game of Thrones (2015) HDTVRip (сезон 5, серии 1 из 10) Кравец (обновляемая) скачать через торрент бесплатно
  • Игра престолов / Game of Thrones (2015) HDTVRip [H.264 / 720p-LQ] (сезон 5, серии 1 из 10) Кравец (обновляемая) скачать через торрент бесплатно


    • Комментарии (0):

      Информация

      Информация

        Посетители, находящиеся в группе Гости, не могут оставлять комментарии в данной новости.

        ↓ Меню




        ↓ Опрос

        Вы добавили сайт в закладки?
        Да
        Нет


        Top 10 за месяц (Фильмы)